Голос Эпохи. Юрий Левитан (Алексей Васильев) [2004, Документальный, история, политика, SATRip]


Статистика раздачи [Обновить пиров]
Размер:  304 MB   |    Зарегистрирован:  8 месяцев 20 дней   |    Скачан:  0 раз

Полного источника не было: Никогда

 
   
 
 
 

[Цитировать]

Голос Эпохи. Юрий Левитан
Дата/Год выпуска: 2004
Страна: Россия
Жанр: Документальный, история, политика
Продолжительность: 00:24:45
Перевод: Не требуется
Режиссер: Алексей Васильев
Телеканал: ТВЦ
Описание: "Говорит Москва. От советского информбюро..." - голос, который произносил эти слова по радио в СССР знала вся страна. За громкий и басовитый голос мальчишки звали его трубой. Соседки прибегали с просьбой позвать своих охламонов домой. Для одних Юрка, для других труба, а по настоящему Юра, Юрий Левитан - главный голос Страны Советов, личный враг Гитлера номер один. Подсчитано, что за годы работы на радио главный диктор страны сделал 60 тысяч сообщений, он вел парады и концерты, читал тексты для фильмов. Его голос в эфире сообщал о главных событиях в стране. Ученые подтвердили, в годы работы на радио, его голос подделать было дествительно невозможно. 4 августа 1983 года радиостанции стран антигитлеровской коалиции на минуту прервали своё вещание в эфир. В этот день Юрий Левитан умер от инфаркта в деревне Бессоновка под Белгородом, куда каждый год он приезжал на встречу со своими друзьями, слушателями и ветеранами.
Сэмпл: http://sendfile.su/1202775
качество: SATRip
формат: AVI
Видео: XviD, 704x528, 4:3, 1577 kbps, 25.000 fps
Аудио: MP3, 128 kbps, 48.0 KHz, 2 ch

MediaInfo

General
Complete name : W:\Torrent_4\Голос Эпохи. Юрий Левитан (2004).avi
Format : AVI
Format/Info : Audio Video Interleave
File size : 304 MiB
Duration : 24mn 45s
Overall bit rate : 1 716 Kbps
Writing application : VirtualDubMod 1.5.10.3 | www.virtualdub-fr.org || (build 2550/release)
Writing library : VirtualDubMod build 2550/release
Video
ID : 0
Format : MPEG-4 Visual
Format profile : Advanced Simple@L5
Format settings, BVOP : 2
Format settings, QPel : No
Format settings, GMC : No warppoints
Format settings, Matrix : Custom
Codec ID : XVID
Codec ID/Hint : XviD
Duration : 24mn 45s
Bit rate : 1 578 Kbps
Width : 704 pixels
Height : 528 pixels
Display aspect ratio : 4:3
Frame rate : 25.000 fps
Color space : YUV
Chroma subsampling : 4:2:0
Bit depth : 8 bits
Scan type : Progressive
Compression mode : Lossy
Bits/(Pixel*Frame) : 0.170
Stream size : 279 MiB (92%)
Writing library : XviD 1.2.1 (UTC 2008-12-04)
Audio
ID : 1
Format : MPEG Audio
Format version : Version 1
Format profile : Layer 3
Codec ID : 55
Codec ID/Hint : MP3
Duration : 24mn 45s
Bit rate mode : Constant
Bit rate : 128 Kbps
Channel(s) : 2 channels
Sampling rate : 48.0 KHz
Compression mode : Lossy
Stream size : 22.7 MiB (7%)
Alignment : Aligned on interleaves
Interleave, duration : 40 ms (1.00 video frame)
Interleave, preload duration : 504 ms
Writing library : LAME3.99r
Encoding settings : -m s -V 4 -q 0 -lowpass 17 -b 128

Скриншоты


[teatrix.ru].t22910.torrent 
Торрент: Зарегистрирован [ 2016-03-21 00:36 ] · 0645F4A758D3C77CBDC57E47CBFB8867AA4CF83B

Скачать .torrent

Скачать

1 KB

Статус: проверено
Скачан: 0 раз
Размер: 304 MB
terms.php



Быстрый ответ

Имя:

      
Для отправки сообщений необходимо включить JavaScript
Показать сообщения:    

Текущее время: 10-Дек 07:59

Часовой пояс: UTC + 3


Вы можете начинать темы
Вы можете отвечать на сообщения
Вы не можете редактировать свои сообщения
Вы не можете удалять свои сообщения
Вы не можете голосовать в опросах
Вы не можете прикреплять файлы к сообщениям
Вы можете скачивать файлы