Американская ночь / La nuit americaine (Франсуа Трюффо / Francois Truffaut) [1973, Франция, Италия, драма, HDRip] DVO (НТВ) + Sub Rus, Eng + Original Fre


 

[Цитировать]

Американская ночь / La nuit americaine

Страна: Франция, Италия
Жанр: драма
Год выпуска: 1973
Продолжительность: 01:56:00
Перевод: Профессиональный (двухголосый закадровый) - НТВ
Cубтитры: русские, английские
Оригинальная аудиодорожка: французский

Режиссер: Франсуа Трюффо / Francois Truffaut
В ролях: Жаклин Биссет, Валентина Кортезе, Дэни, Александра Стюарт, Жан-Пьер Омон, Жан Шампьон, Жан-Пьер Лео, Франсуа Трюффо, Нике Арриги, Натали Бей, Морис Севено, Дэвид Маркам, Бернар Мене
Описание: Американская ночь - ода кинематографу. В ней рассматривается процесс создания фильмов не как искусство, а как ремесло. Трюффо рисует процесс нежных, семейных отношений между членами съемочной группы.
В фильме представлены искусные зарисовки множества характеров, которые умело сравниваются в различных ситуациях. Трюффо также прекрасно показывает мимолетность, хрупкость и нереальность жизни на съемочной площадке.

Качество видео: HDRip
Формат видео: AVI
Видео: 720x432 (1.67:1), 23.976 fps, XviD build 73 ~1594 kbps avg, 0.21 bit/pixel
Аудио: 48 kHz, AC3 Dolby Digital, 2/0 (L,R) ch, ~160 kbps - двухголосый
Аудио: 48 kHz, AC3 Dolby Digital, 1 ch, ~192 kbps - оригинал (отдельно)

MediaInfo

Общее
Полное имя : H:\La.nuit.americaine.1973.hdrip_[1.46]_[teko]\La.nuit.americaine.1973.hdrip_[1.46].avi
Формат : AVI
Формат/Информация : Audio Video Interleave
Размер файла : 1,43 Гбайт
Продолжительность : 1 ч. 56 м.
Общий поток : 1764 Кбит/сек
Программа кодирования : VirtualDubMod 1.5.10.3 | www.virtualdub-fr.org || (build 2550/release)
Библиотека кодирования : VirtualDubMod build 2550/release
Видео
Идентификатор : 0
Формат : MPEG-4 Visual
Профиль формата : Advanced Simple@L5
Параметр BVOP формата : 2
Параметр QPel формата : Нет
Параметр GMC формата : Без точки перехода
Параметр матрицы формата : Выборочная
Идентификатор кодека : XVID
Идентификатор кодека/Подсказка : XviD
Продолжительность : 1 ч. 56 м.
Битрейт : 1594 Кбит/сек
Ширина : 720 пикселей
Высота : 432 пикселя
Соотношение сторон : 1,667
Частота кадров : 23,976 кадра/сек
Цветовое пространство : YUV
Субдискретизация насыщенности : 4:2:0
Битовая глубина : 8 бит
Тип развёртки : Прогрессивная
Метод сжатия : С потерями
Бит/(Пиксели*Кадры) : 0.214
Размер потока : 1,29 Гбайт (90%)
Библиотека кодирования : XviD 73
Аудио
Идентификатор : 1
Формат : AC-3
Формат/Информация : Audio Coding 3
Расширение режима : CM (complete main)
Параметр Endianness формата : Big
Идентификатор кодека : 2000
Продолжительность : 1 ч. 56 м.
Вид битрейта : Постоянный
Битрейт : 160 Кбит/сек
Каналы : 2 канала
Расположение каналов : Front: L R
Частота : 48,0 КГц
Битовая глубина : 16 бит
Метод сжатия : С потерями
Размер потока : 133 Мбайт (9%)
Выравнивание : Разделение по промежуткам
Продолжительность промежутка : 42 мс. (1,00 видеокадр)
Время предзагрузки промежутка : 500 мс.



Показать сообщения:    

Текущее время: 02-Дек 21:15

Часовой пояс: UTC + 3


Вы не можете начинать темы
Вы не можете отвечать на сообщения
Вы не можете редактировать свои сообщения
Вы не можете удалять свои сообщения
Вы не можете голосовать в опросах
Вы не можете прикреплять файлы к сообщениям
Вы не можете скачивать файлы