Такая красотка, как я / Une belle fille comme moi (Франсуа Трюффо / François Truffaut) [1972, Франция, комедия, криминал, BDRip] MVO (Кармен Видео)


 

[Цитировать]

Такая красотка, как я / Une belle fille comme moi

Страна: Франция
Жанр: комедия, криминал
Год выпуска: 1972
Продолжительность: 01:38:07
Перевод: Профессиональный (многоголосый, закадровый) - Кармен Видео
Cубтитры: нет

Режиссер: Франсуа Трюффо / François Truffaut
В ролях: Бернадетт Лафон, Клод Брассёр, Шарль Деннер, Ги Маршан, Андре Дюссолье, Анн Крейс, Филипп Леотар, Жильбер Женья, Мишель Дилэй, Даниэль Жирар
Описание: По роману Генри Фаррелла.
Молодой социолог Станислас Превин пишет диссертацию о женской преступности. Ему разрешают встретиться и взять интервью у преступницы, которая отбывает тюремный срок за убийство. Камилла Блисс, так зовут заключённую, рассказывает Станисласу всю свою жизнь и историю своих любовных похождений. Она пристраивается по ходу дела, где сможет и к кому сможет, лишь бы у того были деньги.

Качество видео: BDRip
Формат видео: AVI
Видео: 576x432 (1.33:1), 24 fps, XviD build 73 ~921 kbps avg, 0.15 bit/pixel
Аудио: 48 kHz, MPEG Layer 3, 2 ch, ~128.00 kbps avg

MediaInfo

Общее
Полное имя : H:\Une.belle.fille.comme.moi_a.gorgeous.girl.like.me.1972.bdrip_[745]_[teko].avi
Формат : AVI
Формат/Информация : Audio Video Interleave
Размер файла : 743 Мбайт
Продолжительность : 1 ч. 38 м.
Общий поток : 1059 Кбит/сек
Программа кодирования : VirtualDubMod 1.5.10.3 | www.virtualdub-fr.org || (build 2550/release)
Библиотека кодирования : VirtualDubMod build 2550/release
Видео
Идентификатор : 0
Формат : MPEG-4 Visual
Профиль формата : Advanced Simple@L5
Параметр BVOP формата : 2
Параметр QPel формата : Нет
Параметр GMC формата : Без точки перехода
Параметр матрицы формата : Выборочная
Идентификатор кодека : XVID
Идентификатор кодека/Подсказка : XviD
Продолжительность : 1 ч. 38 м.
Битрейт : 921 Кбит/сек
Ширина : 576 пикселей
Высота : 432 пикселя
Соотношение сторон : 4:3
Частота кадров : 24,000 кадра/сек
Цветовое пространство : YUV
Субдискретизация насыщенности : 4:2:0
Битовая глубина : 8 бит
Тип развёртки : Прогрессивная
Метод сжатия : С потерями
Бит/(Пиксели*Кадры) : 0.154
Размер потока : 647 Мбайт (87%)
Библиотека кодирования : XviD 73
Аудио
Идентификатор : 1
Формат : MPEG Audio
Версия формата : Version 1
Профиль формата : Layer 3
Идентификатор кодека : 55
Идентификатор кодека/Подсказка : MP3
Продолжительность : 1 ч. 38 м.
Вид битрейта : Постоянный
Битрейт : 128 Кбит/сек
Каналы : 2 канала
Частота : 48,0 КГц
Метод сжатия : С потерями
Размер потока : 89,8 Мбайт (12%)
Выравнивание : Соединение по промежуткам
Продолжительность промежутка : 42 мс. (1,00 видеокадр)
Время предзагрузки промежутка : 504 мс.
Библиотека кодирования : LAME3.98r
Настройки программы : -m s -V 4 -q 2 -lowpass 17 -b 128



Показать сообщения:    

Текущее время: 11-Дек 05:20

Часовой пояс: UTC + 3


Вы не можете начинать темы
Вы не можете отвечать на сообщения
Вы не можете редактировать свои сообщения
Вы не можете удалять свои сообщения
Вы не можете голосовать в опросах
Вы не можете прикреплять файлы к сообщениям
Вы не можете скачивать файлы