Такая красотка, как я / Une belle fille comme moi (Франсуа Трюффо / François Truffaut) [1972, Франция, комедия, криминал, BDRip] MVO (Кармен Видео) + MVO + Sub Rus, Eng + Original Fre


 

[Цитировать]

Такая красотка, как я / Une belle fille comme moi
Страна: Франция
Жанр: комедия, криминал
Год выпуска: 1972
Продолжительность: 01:38:07
Перевод: Профессиональный (многоголосый закадровый) - Кармен Видео
Перевод: Профессиональный (многоголосый закадровый)
Cубтитры: русские, английские
Оригинальная аудиодорожка: французский

Режиссер: Франсуа Трюффо / François Truffaut
В ролях: Бернадетт Лафон, Клод Брассёр, Шарль Деннер, Ги Маршан, Андре Дюссолье, Анн Крейс, Филипп Леотар, Жильбер Женья, Мишель Дилэй, Даниэль Жирар
Описание: По роману Генри Фаррелла.
Молодой социолог Станислас Превин пишет диссертацию о женской преступности. Ему разрешают встретиться и взять интервью у преступницы, которая отбывает тюремный срок за убийство. Камилла Блисс, так зовут заключённую, рассказывает Станисласу всю свою жизнь и историю своих любовных похождений. Она пристраивается по ходу дела, где сможет и к кому сможет, лишь бы у того были деньги.

Качество видео: BDRip
Формат видео: AVI
Видео: 640x480 (1.33:1), 24 fps, XviD build 73 ~1921 kbps avg, 0.26 bit/pixel
Аудио: 48 kHz, AC3 Dolby Digital, 2/0 (L,R) ch, ~192 kbps - Кармен Видео
отдельными файлами:
Аудио: 48 kHz, AC3 Dolby Digital, 2/0 (L,R) ch, ~192 kbps - многоголосый
Аудио: 48 kHz, AC3 Dolby Digital, 2/0 (L,R) ch, ~192 kbps - оригинал

MediaInfo

Общее
Полное имя : H:\Une.belle.fille.comme.moi_a.gorgeous.girl.like.me.1972.bdrip_[1.46].avi
Формат : AVI
Формат/Информация : Audio Video Interleave
Размер файла : 1,46 Гбайт
Продолжительность : 1 ч. 38 м.
Общий поток : 2123 Кбит/сек
Программа кодирования : VirtualDubMod 1.5.10.3 | www.virtualdub-fr.org || (build 2550/release)
Библиотека кодирования : VirtualDubMod build 2550/release
Видео
Идентификатор : 0
Формат : MPEG-4 Visual
Профиль формата : Advanced Simple@L5
Параметр BVOP формата : 2
Параметр QPel формата : Нет
Параметр GMC формата : Без точки перехода
Параметр матрицы формата : Выборочная
Идентификатор кодека : XVID
Идентификатор кодека/Подсказка : XviD
Продолжительность : 1 ч. 38 м.
Битрейт : 1922 Кбит/сек
Ширина : 640 пикселей
Высота : 480 пикселей
Соотношение сторон : 4:3
Частота кадров : 24,000 кадра/сек
Цветовое пространство : YUV
Субдискретизация насыщенности : 4:2:0
Битовая глубина : 8 бит
Тип развёртки : Прогрессивная
Метод сжатия : С потерями
Бит/(Пиксели*Кадры) : 0.261
Размер потока : 1,32 Гбайт (91%)
Библиотека кодирования : XviD 73
Аудио
Идентификатор : 1
Формат : AC-3
Формат/Информация : Audio Coding 3
Расширение режима : CM (complete main)
Параметр Endianness формата : Big
Идентификатор кодека : 2000
Продолжительность : 1 ч. 38 м.
Вид битрейта : Постоянный
Битрейт : 192 Кбит/сек
Каналы : 2 канала
Расположение каналов : Front: L R
Частота : 48,0 КГц
Битовая глубина : 16 бит
Метод сжатия : С потерями
Размер потока : 135 Мбайт (9%)
Выравнивание : Разделение по промежуткам
Продолжительность промежутка : 42 мс. (1,00 видеокадр)
Время предзагрузки промежутка : 500 мс.



Показать сообщения:    

Текущее время: 02-Дек 21:16

Часовой пояс: UTC + 3


Вы не можете начинать темы
Вы не можете отвечать на сообщения
Вы не можете редактировать свои сообщения
Вы не можете удалять свои сообщения
Вы не можете голосовать в опросах
Вы не можете прикреплять файлы к сообщениям
Вы не можете скачивать файлы