Пропитанный отбеливателем / Soaked in Bleach (Бен Статлер / Ben Statler) [2015, Документальный, (Курт Кобейн) WEBRip]


Статистика раздачи [Обновить пиров]
Размер:  1.45 GB   |    Зарегистрирован:  8 месяцев 19 дней   |    Скачан:  0 раз

Полного источника не было: Никогда

 
   
 
 
 

[Цитировать]

Пропитанный отбеливателем / Soaked in Bleach-- Дата/Год выпуска: 2015
Страна: США
Жанр: Документальный
Продолжительность: 01:29:25
Перевод: Любительский (двухголосый закадровый)
Русские субтитры: нет
Режиссер: Бен Статлер / Ben Statler
Описание: Создатели фильма пытаются разобраться с загадочной смертью Курта Кобейна, представляя новые факты и детали собственного расследования.
Сэмпл: http://multi-up.com/1088511
качество: WEBRip
формат: AVI
Видео: XviD,720 x 304, 2,40:1, 1732 Кбит/сек, 23.976
Аудио: AC-3 192 Кбит/сек 2 канала, 44,1 КГц
Аудио 2: AC-3 384 Кбит/сек 2 канала, 48,0 КГц

MediaInfo

Общее
Полное имя : F:\Soaked.in.Bleach.2015.WEBRiP.avi
Формат : AVI
Формат/Информация : Audio Video Interleave
Профиль формата : OpenDML
Размер файла : 1,45 Гбайт
Продолжительность : 1 ч. 29 м.
Общий поток : 2326 Кбит/сек
Программа кодирования : XviD4PSP 6.0 / 54.29.105
Видео
Идентификатор : 0
Формат : xvid
Идентификатор кодека : xvid
Продолжительность : 1 ч. 29 м.
Битрейт : 1732 Кбит/сек
Ширина : 720 пикселей
Высота : 304 пикселя
Соотношение сторон : 2,40:1
Частота кадров : 23,976 кадра/сек
Бит/(Пиксели*Кадры) : 0.330
Размер потока : 1,08 Гбайт (74%)
Аудио #1
Идентификатор : 1
Формат : AC-3
Формат/Информация : Audio Coding 3
Расширение режима : CM (complete main)
Параметр Endianness формата : Big
Идентификатор кодека : 2000
Продолжительность : 1 ч. 29 м.
Вид битрейта : Постоянный
Битрейт : 192 Кбит/сек
Каналы : 2 канала
Расположение каналов : Front: L R
Частота : 44,1 КГц
Битовая глубина : 16 бит
Метод сжатия : С потерями
Размер потока : 123 Мбайт (8%)
Выравнивание : Соединение по промежуткам
Продолжительность промежутка : 35 мс. (0,84 видеокадр)
Заголовок : Kulzvuk Studio
Аудио #2
Идентификатор : 2
Формат : AC-3
Формат/Информация : Audio Coding 3
Расширение режима : CM (complete main)
Параметр Endianness формата : Big
Идентификатор кодека : 2000
Продолжительность : 1 ч. 29 м.
Вид битрейта : Постоянный
Битрейт : 384 Кбит/сек
Каналы : 2 канала
Расположение каналов : Front: L R
Частота : 48,0 КГц
Битовая глубина : 16 бит
Метод сжатия : С потерями
Размер потока : 246 Мбайт (17%)
Выравнивание : Соединение по промежуткам
Продолжительность промежутка : 32 мс. (0,77 видеокадр)
Заголовок : Original

Скриншоты

[teatrix.ru].t22915.torrent 
Торрент: Зарегистрирован [ 2016-03-21 00:36 ] · F52B09A87B2335DAB2088038F334E03E79D2B671

Скачать .torrent

Скачать

15 KB

Статус: проверено
Скачан: 0 раз
Размер: 1.45 GB
terms.php



Быстрый ответ

Имя:

      
Для отправки сообщений необходимо включить JavaScript
Показать сообщения:    

Текущее время: 09-Дек 08:49

Часовой пояс: UTC + 3


Вы можете начинать темы
Вы можете отвечать на сообщения
Вы не можете редактировать свои сообщения
Вы не можете удалять свои сообщения
Вы не можете голосовать в опросах
Вы не можете прикреплять файлы к сообщениям
Вы можете скачивать файлы