Без крова, без закона / Без жилья и вне закона / Vagabond / Sans toit ni loi (Аньес Варда / Agnes Varda) [1985, Франция, драма, DVDRip] DVO (НТВ)


Статистика раздачи [Обновить пиров]
Размер:  744 MB   |    Зарегистрирован:  8 месяцев 15 дней   |    Скачан:  0 раз

Полного источника не было: Никогда

 
   
 
 
 

[Цитировать]

Без крова, без закона / Без жилья и вне закона / Vagabond / Sans toit ni loi
Страна: Франция
Жанр: драма
Год выпуска: 1985
Продолжительность: 01:45:56
Перевод: Профессиональный (двухголосый закадровый) - НТВ
Cубтитры: нет

Режиссер: Аньес Варда / Agnes Varda
В ролях: Сандрин Боннэр, Сетти Рамдан, Френсис Балшер, Жан-Луи Перлетти, Урбен Коссе, Кристоф Алказар, Доминик Дюран, Жоэль Фосс, Патрик Шмит, Дэниэл Бос
Описание: Батрак с фермы находит в канаве труп замерзшей женщины со спутанными волосами, в изношенной кожаной куртке и грязных джинсах. Это была Мона, яростно независимая бродяжка, чьи последние недели воссоздаются при помощи ретроспекции и в опросах людей, знакомых или встречавших Мону. Вскоре становится ясно, что никто толком ее не знал…
Качество видео: DVDRip
Формат видео: AVI
Видео: 608x368 (1.65:1), 23.976 fps, XviD build 73 ~844 kbps avg, 0.16 bit/pixel
Аудио: 48 kHz, MPEG Layer 3, 1 ch, ~128.00 kbps avg

MediaInfo

Общее
Полное имя : H:\Sans.toit.ni.loi.1985.dvdrip_[745]_[teko].avi
Формат : AVI
Формат/Информация : Audio Video Interleave
Размер файла : 744 Мбайт
Продолжительность : 1 ч. 45 м.
Общий поток : 982 Кбит/сек
Программа кодирования : VirtualDubMod 1.5.10.3 | www.virtualdub-fr.org || (build 2550/release)
Библиотека кодирования : VirtualDubMod build 2550/release
Видео
Идентификатор : 0
Формат : MPEG-4 Visual
Профиль формата : Advanced Simple@L5
Параметр BVOP формата : 2
Параметр QPel формата : Нет
Параметр GMC формата : Без точки перехода
Параметр матрицы формата : Выборочная
Идентификатор кодека : XVID
Идентификатор кодека/Подсказка : XviD
Продолжительность : 1 ч. 45 м.
Битрейт : 844 Кбит/сек
Ширина : 608 пикселей
Высота : 368 пикселей
Соотношение сторон : 1,652
Частота кадров : 23,976 кадра/сек
Цветовое пространство : YUV
Субдискретизация насыщенности : 4:2:0
Битовая глубина : 8 бит
Тип развёртки : Прогрессивная
Метод сжатия : С потерями
Бит/(Пиксели*Кадры) : 0.157
Размер потока : 640 Мбайт (86%)
Библиотека кодирования : XviD 73
Аудио
Идентификатор : 1
Формат : MPEG Audio
Версия формата : Version 1
Профиль формата : Layer 3
Идентификатор кодека : 55
Идентификатор кодека/Подсказка : MP3
Продолжительность : 1 ч. 45 м.
Вид битрейта : Постоянный
Битрейт : 128 Кбит/сек
Каналы : 1 канал
Частота : 48,0 КГц
Метод сжатия : С потерями
Размер потока : 97,0 Мбайт (13%)
Выравнивание : Соединение по промежуткам
Продолжительность промежутка : 42 мс. (1,00 видеокадр)
Время предзагрузки промежутка : 504 мс.
Библиотека кодирования : LAME3.98r
Настройки программы : -m m -V 4 -q 2 -lowpass 20.5 -b 128
[teatrix.ru].t22916.torrent 
Торрент: Зарегистрирован [ 2016-03-21 00:36 ] · F95C7A0C95DEF7D0AE92B4881F30530E6544EC57

Скачать .torrent

Скачать

15 KB

Статус: проверено
Скачан: 0 раз
Размер: 744 MB
terms.php



Быстрый ответ

Имя:

      
Для отправки сообщений необходимо включить JavaScript
Показать сообщения:    

Текущее время: 05-Дек 07:28

Часовой пояс: UTC + 3


Вы можете начинать темы
Вы можете отвечать на сообщения
Вы не можете редактировать свои сообщения
Вы не можете удалять свои сообщения
Вы не можете голосовать в опросах
Вы не можете прикреплять файлы к сообщениям
Вы можете скачивать файлы