Отдых на грани нервного срыва / Ni a vendre ni a louer / Holidays by the Sea (Паскаль Рабатэ / Pascal Rabaté) [2011, Франция, комедия, DVDRip] Original Fre + Sub Rus


Статистика раздачи [Обновить пиров]
Размер:  1.45 GB   |    Зарегистрирован:  8 месяцев 15 дней   |    Скачан:  0 раз

Полного источника не было: Никогда

 
   
 
 
 

[Цитировать]

Отдых на грани нервного срыва / Ni à vendre ni à louer Страна: Франция
Жанр: комедия
Год выпуска: 2011
Продолжительность: 01:12:52
Перевод: Не требуется
Cубтитры: русские (на надписи и единичные фразы)
Оригинальная аудиодорожка: почти без разговорной речи
Режиссер: Паскаль Рабатэ / Pascal Rabaté
В ролях: Катрин Осмален, Шарль Шнайдер, Густав Керверн, Венсан Мартин, Мари Кремер, Жак Гамблен, Арсен Моска, Доминик Пиньон, Мария де Медейруш, Франсуа Дамиенс, Шанталь Нойвирт, Франсуа Морель.
Описание: Французы выдвигаются на побережье. Горожане и влюбленные панки, пенсионеры, супружеские пары, тайные любовники, семья скаутов и даже садомазохист-неудачник намерены получить заслуженный отдых и немного развлечься в палатке, в номере безымянного отеля, в автотрейлере, домике размером с собачью конуру. Они все едут на море - на машине для гольфа, в электричке или в спортивных автомобилях с открытым верхом. Их случайные и спланированные встречи, измены, влюбленности, семейная рутина и другие курортные приключения превратятся в фейерверк.

Доп. информация: Исходник (DVD9)

Качество видео: DVDRip
Формат видео: AVI
Видео: 720x320 (2.25:1), 25 fps, XviD build 50 ~2396 kbps avg, 0.42 bit/pixel
Аудио: 48 kHz, AC3 Dolby Digital, 3/2 (L,C,R,l,r) + LFE ch, ~448 kbps
Формат субтитров: hardsub (неотключаемые)

MediaInfo

General
Complete name : D:\Public\Ni.a.Vendre.Ni.a.Louer.(2011).DVDRip.avi
Format : AVI
Format/Info : Audio Video Interleave
File size : 1.45 GiB
Duration : 1h 12mn
Overall bit rate : 2 855 Kbps
Writing application : VirtualDubMod 1.5.10.2 (build 2540/release)
Writing library : VirtualDubMod build 2540/release
Video
ID : 0
Format : MPEG-4 Visual
Format profile : Advanced Simple@L5
Format settings, BVOP : 1
Format settings, QPel : No
Format settings, GMC : No warppoints
Format settings, Matrix : Custom
Codec ID : XVID
Codec ID/Hint : XviD
Duration : 1h 12mn
Bit rate : 2 397 Kbps
Width : 720 pixels
Height : 320 pixels
Display aspect ratio : 2.25:1
Frame rate : 25.000 fps
Color space : YUV
Chroma subsampling : 4:2:0
Bit depth : 8 bits
Scan type : Progressive
Compression mode : Lossy
Bits/(Pixel*Frame) : 0.416
Stream size : 1.22 GiB (84%)
Writing library : XviD 1.2.1 (UTC 2008-12-04)
Audio
ID : 1
Format : AC-3
Format/Info : Audio Coding 3
Mode extension : CM (complete main)
Codec ID : 2000
Duration : 1h 12mn
Bit rate mode : Constant
Bit rate : 448 Kbps
Channel(s) : 6 channels
Channel positions : Front: L C R, Side: L R, LFE
Sampling rate : 48.0 KHz
Bit depth : 16 bits
Compression mode : Lossy
Stream size : 233 MiB (16%)
Alignment : Split accross interleaves
Interleave, duration : 40 ms (1.00 video frame)
Interleave, preload duration : 500 ms

Скриншот c названием фильма

Скриншоты

[teatrix.ru].t22917.torrent 
Торрент: Зарегистрирован [ 2016-03-21 00:36 ] · 1B635E02175F8995E2F209FE673EDE596C4EC17F

Скачать .torrent

Скачать

15 KB

Статус: проверено
Скачан: 0 раз
Размер: 1.45 GB
terms.php



Быстрый ответ

Имя:

      
Для отправки сообщений необходимо включить JavaScript
Показать сообщения:    

Текущее время: 05-Дек 21:35

Часовой пояс: UTC + 3


Вы можете начинать темы
Вы можете отвечать на сообщения
Вы не можете редактировать свои сообщения
Вы не можете удалять свои сообщения
Вы не можете голосовать в опросах
Вы не можете прикреплять файлы к сообщениям
Вы можете скачивать файлы