(classical) Dvorak/Дворжак, Bruch/Брук, Boccherini/Боччерини - Pablo Casals: Cello Concertos (London Symphony Orchestra, Sir Landon Ronald; Czech Philharmonic Orchestra, Geoge Szell) - 1989, FLAC (image+.cue) lossless


Статистика раздачи [Обновить пиров]
Размер:  243 MB   |    Зарегистрирован:  8 месяцев 19 дней   |    Скачан:  0 раз

Полного источника не было: Никогда

 
   
 
 
 

[Цитировать]

Dvorak, Bruch, Boccherini/Дворжак, Брук, Боччерини (Pablo Casals)
Жанр: classical
Страна-производитель диска: england
Год издания диска: 1989
Издатель (лейбл): Pearl
Номер по каталогу: GEMM CD 9349
Дата записи: 1936-37
Аудиокодек: FLAC
Тип рипа: image+.cue
Битрейт аудио: lossless
Продолжительность: 01:10:16
Источник: собственный рип
Наличие сканов в содержимом раздачи: да
Треклист:
Boccherini
Cello Concerto in Bd
1 : Allegro moderato
2 : Adagio non troppo
3 : Rondo (Allegro)
(Rec. 29h November 1936. Mats. 2EA 4156-61; HVM DB 3056-58)
Bruch
4 : Kol Nidrei (for Cello and Orchestra), op.47
(Rec. 27h November 1936. Mats. 2EA 4153-55; HVM DB 3063-64)
Dvorak
Cello Concerto in Bd, op.104
5 : Allegro
6 : Adagio ma non troppo
7 : Finale : Allegro moderato
(Rec. April 1937. Mats. 2CH 220-29; HVM DB 3288-29)
Исполнители:
Tracks 1-4; wiht the London Symphony Orchestra/Sir Landon Ronald
Tracks 5-7; wiht the Czech Philharmonic Orchestra/Geoge Szell

Лог создания рипа

Exact Audio Copy V1.1 from 23. June 2015
Отчёт EAC об извлечении, выполненном 9. февраля 2016, 19:20
Pablo Casals / Dvorak, Boccherini, Bruch - Cello Concertos
Дисковод: _NEC DVD_RW ND-3540A Adapter: 1 ID: 0
Режим чтения : Достоверность
Использование точного потока : Да
Отключение кэша аудио : Да
Использование указателей C2 : Нет
Коррекция смещения при чтении : 48
Способность читать области Lead-in и Lead-out : Нет
Заполнение пропущенных сэмплов тишиной : Да
Удаление блоков с тишиной в начале и конце : Нет
При вычислениях CRC использовались нулевые сэмплы : Да
Интерфейс : Встроенный Win32-интерфейс для Win NT/2000
Выходной формат : Пользовательский кодировщик
Выбранный битрейт : 1024 kBit/s
Качество : Высокий
Добавление ID3-тега : Да
Утилита сжатия : C:\Program Files (x86)\Exact Audio Copy\Flac\flac.exe
Дополнительные параметры : -V -8 -T "Date=%year%" -T "Genre=%genre%" %source%
TOC извлечённого CD
Трек | Старт | Длительность | Начальный сектор | Конечный сектор
---------------------------------------------------------------------
1 | 0:00.32 | 9:04.23 | 32 | 40854
2 | 9:04.55 | 6:18.55 | 40855 | 69259
3 | 15:23.35 | 6:59.67 | 69260 | 100751
4 | 22:23.27 | 12:05.53 | 100752 | 155179
5 | 34:29.05 | 13:31.07 | 155180 | 216011
6 | 48:00.12 | 10:35.13 | 216012 | 263649
7 | 58:35.25 | 11:41.20 | 263650 | 316244
Характеристики диапазона извлечения и сообщения об ошибках
Выбранный диапазон
Имя файла Y:\SOUND\44,1kHz\CASALS - Dvorak, Bruch, Bocciherini\Pablo Casals - Dvorak, Boccherini, Bruch - Cello Concertos.wav
Пиковый уровень 98.6 %
Скорость извлечения 8.1 X
Качество диапазона 100.0 %
CRC теста CA449910
CRC копии CA449910
Копирование... OK
Ошибок не произошло
Конец отчёта
---- CUETools DB Plugin V2.1.6
[CTDB TOCID: HJHIRqNgH0VY5oX_GgoKdnihxN0-] disk not present in database
Submit result: HJHIRqNgH0VY5oX_GgoKdnihxN0- has been uploaded
==== Контрольная сумма отчёта 41F79A5FC0CFCBD8BBB0716BA713D4456AE6EDF14FF2A15AC6EEB49E962D0AB3 ====

Содержание индексной карты (.CUE)

REM GENRE Classical
REM DATE 1989
REM DISCID 5C107807
REM COMMENT "ExactAudioCopy v1.1"
PERFORMER "Pablo Casals"
TITLE "Dvorak, Boccherini, Bruch - Cello Concertos"
FILE "Pablo Casals - Dvorak, Boccherini, Bruch - Cello Concertos.flac" WAVE
TRACK 01 AUDIO
TITLE "Boccherini - Cello Concerto in B flat - 1 : Allegro moderato"
PERFORMER "Pablo Casals"
INDEX 00 00:00:00
INDEX 01 00:00:32
TRACK 02 AUDIO
TITLE "- 2 : Adagio non troppo"
PERFORMER "Pablo Casals"
INDEX 00 09:01:27
INDEX 01 09:04:55
TRACK 03 AUDIO
TITLE "- 3 : Rondo (Allegro)"
PERFORMER "Pablo Casals"
INDEX 00 15:19:55
INDEX 01 15:23:35
TRACK 04 AUDIO
TITLE "Bruch - Kol Nidrei (for Cello and Orchestra), op.47"
PERFORMER "Pablo Casals"
INDEX 00 22:16:70
INDEX 01 22:23:27
TRACK 05 AUDIO
TITLE "Dvorak - Cello Concerto in B flat, op.104 - 1 : Allegro"
PERFORMER "Pablo Casals"
INDEX 00 34:22:20
INDEX 01 34:29:05
TRACK 06 AUDIO
TITLE "- 2 : Adagio ma non troppo"
PERFORMER "Pablo Casals"
INDEX 00 47:55:07
INDEX 01 48:00:12
TRACK 07 AUDIO
TITLE "- 3 : Finale : Allegro moderato"
PERFORMER "Pablo Casals"
INDEX 00 58:29:67
INDEX 01 58:35:25

Скриншот спектра частот


[teatrix.ru].t22918.torrent 
Торрент: Зарегистрирован [ 2016-03-21 00:36 ] · B1695F6C430A2C7D2F5F257094474271E8EA17E5

Скачать .torrent

Скачать

20 KB

Статус: проверено
Скачан: 0 раз
Размер: 243 MB
terms.php



Быстрый ответ

Имя:

      
Для отправки сообщений необходимо включить JavaScript
Показать сообщения:    

Текущее время: 09-Дек 18:33

Часовой пояс: UTC + 3


Вы можете начинать темы
Вы можете отвечать на сообщения
Вы не можете редактировать свои сообщения
Вы не можете удалять свои сообщения
Вы не можете голосовать в опросах
Вы не можете прикреплять файлы к сообщениям
Вы можете скачивать файлы