[TR24][SM][OF] Claude Debussy - Iberia • Maurice Ravel - La Valse, Rhapsodie Espagnole / Theodore Bloomfield & Rochester Philharmonic Orchestra - 1960 (Classical)


Статистика раздачи [Обновить пиров]
Размер:  1.37 GB   |    Зарегистрирован:  8 месяцев 20 дней   |    Скачан:  0 раз

Полного источника не было: Никогда

 
   
 
 
 

[Цитировать]

·
·

DEBUSSY :IBERIA
RAVEL : LA VALSE & RHAPSODIE ESPAGNOL
Жанр: Orchestral
Носитель: Official Digital Download
Год издания диска: Ⓟ 1960 Everest Records
Год переиздания диска: © 2013 Countdown Media GmbH
Номер по каталогу: SDBR 3060
Продолжительность: 46:54
Наличие сканов в содержимом раздачи: artwork
Контейнер: FLAC (*.flac)
Разрядность: 24/192
Количество каналов: 2.0
Формат: tracks
Источник: HDtracks
Pелизер: WEB (thanks to the original customer)
Theodore Bloomfield
Rochester Philharmonic Orchestra

Треклист

Claude Debussy (1862-1918)
Iberia
01 I. Par les rues et par les chemins 07:08
02 II. Les parfums de la nuit 08:27
03 III. Rondes de printemps 04:27
Maurice Ravel (1875-1937)
04 La Valse 11:54
Rhapsodie espagnole
05 I. Prelude a la Nuit 04:21
06 II. Malaguena 02:01
07 III. Habanera 02:33
08 IV. Feria 06:03

Dynamic Range Meter

foobar2000 1.2.6 / Dynamic Range Meter 1.1.1
log date: 2016-02-10 18:41:07
--------------------------------------------------------------------------------
Analyzed: Rochester Philharmonic Orchestra, Theodore Bloomfield / Debussy: Iberia; Ravel: La Valse, Rhapsodie Espagnole
--------------------------------------------------------------------------------
DR Peak RMS Duration Track
--------------------------------------------------------------------------------
DR15 -2.09 dB -24.70 dB 7:08 01-Iberia: I. Par les rues et par les chemins
DR16 -6.83 dB -30.31 dB 8:27 02-Iberia: II. Les parfums de la nuit
DR17 -0.30 dB -23.40 dB 4:27 03-Iberia: III. Rondes de printemps
DR15 -0.67 dB -22.26 dB 11:54 04-La Valse
DR15 -7.09 dB -31.72 dB 4:21 05-Rhapsodie espagnole: I. Prelude a la Nuit
DR16 -0.30 dB -24.50 dB 2:01 06-Rhapsodie espagnole: II. Malaguena
DR13 -13.52 dB -33.65 dB 2:33 07-Rhapsodie espagnole: III. Habanera
DR14 -0.69 dB -21.54 dB 6:03 08-Rhapsodie espagnole: IV. Feria
--------------------------------------------------------------------------------
Number of tracks: 8
Official DR value: DR15
Samplerate: 192000 Hz
Channels: 2
Bits per sample: 24
Bitrate: 4109 kbps
Codec: FLAC
================================================================================
[teatrix.ru].t22919.torrent 
Торрент: Зарегистрирован [ 2016-03-21 00:36 ] · 08BACE87621C56E2634C04E7B31F8FD76A8DE740

Скачать .torrent

Скачать

15 KB

Статус: проверено
Скачан: 0 раз
Размер: 1.37 GB
terms.php



Быстрый ответ

Имя:

      
Для отправки сообщений необходимо включить JavaScript
Показать сообщения:    

Текущее время: 10-Дек 23:28

Часовой пояс: UTC + 3


Вы можете начинать темы
Вы можете отвечать на сообщения
Вы не можете редактировать свои сообщения
Вы не можете удалять свои сообщения
Вы не можете голосовать в опросах
Вы не можете прикреплять файлы к сообщениям
Вы можете скачивать файлы