(Classical) David Babcock - Piano Sonata; Towards the Horizon - David Babcock - 2003, FLAC (image+.cue) lossless


 

[Цитировать]

David Babcock - Piano Sonata; Towards the Horizon - David Babcock
Жанр: Classical
Страна-производитель диска: Austria
Год издания диска: 2003
Издатель (лейбл): Music Forum Austria-America
Дата записи: 2003
Аудиокодек: FLAC
Тип рипа: image+.cue
Битрейт аудио: lossless
Продолжительность: 53:41
Источник: собственный рип
Наличие сканов в содержимом раздачи: да
Треклист:
David Babcock (b.1956)
[1]-[2] Piano Sonata, Op.60 (2003)
[3] Towards the Horizon, Op.20 (1988)
Исполнители:
David Babcock piano

Лог создания рипа

Exact Audio Copy V1.0 beta 3 from 29. August 2011
EAC extraction logfile from 29. May 2015, 22:28
David Babcock / Babcock - Piano Works
Used drive : HL-DT-STDVDRAM GU70N Adapter: 0 ID: 0
Read mode : Secure
Utilize accurate stream : Yes
Defeat audio cache : Yes
Make use of C2 pointers : No
Read offset correction : 48
Overread into Lead-In and Lead-Out : No
Fill up missing offset samples with silence : Yes
Delete leading and trailing silent blocks : No
Null samples used in CRC calculations : Yes
Used interface : Native Win32 interface for Win NT & 2000
Used output format : User Defined Encoder
Selected bitrate : 128 kBit/s
Quality : High
Add ID3 tag : No
Command line compressor : C:\Program Files (x86)\Exact Audio Copy\Flac\flac.exe
Additional command line options : -V -8 -T "Date=%year%" -T "Genre=%genre%" %source%
TOC of the extracted CD
Track | Start | Length | Start sector | End sector
---------------------------------------------------------
1 | 0:00.00 | 23:11.71 | 0 | 104395
2 | 23:11.71 | 19:16.23 | 104396 | 191118
3 | 42:28.19 | 11:25.06 | 191119 | 242499
Range status and errors
Selected range
Filename C:\temp\Babcock - Piano Works\Babcock - Piano Works.wav
Peak level 98.3 %
Extraction speed 2.0 X
Range quality 99.9 %
Test CRC D2A9AB6E
Copy CRC D2A9AB6E
Copy OK
No errors occurred
AccurateRip summary
Track 1 not present in database
Track 2 not present in database
Track 3 not present in database
None of the tracks are present in the AccurateRip database
End of status report
==== Log checksum 485D83A9B644726FC6E5E2538BB041FE529ACEC8D9FD94855FA7344A33365E4B ====



Показать сообщения:    

Текущее время: 10-Дек 23:31

Часовой пояс: UTC + 3


Вы не можете начинать темы
Вы не можете отвечать на сообщения
Вы не можете редактировать свои сообщения
Вы не можете удалять свои сообщения
Вы не можете голосовать в опросах
Вы не можете прикреплять файлы к сообщениям
Вы не можете скачивать файлы