(Classical, Cello, Piano) Edgar Moreau & Pierre-Yves Hodique - Play: Works for Cello and Piano - 2014, FLAC (tracks+.cue), lossless


 

[Цитировать]

Edgar Moreau & Pierre-Yves Hodique - Play: Works for Cello and Piano
Жанр: Classical, Cello, Piano
Страна-производитель диска: Великобритания
Год издания диска: 2014
Издатель (лейбл): Erato/Warner Classics
Номер по каталогу: 0825646369584
Аудиокодек: FLAC
Тип рипа: tracks+.cue
Битрейт аудио: lossless
Продолжительность: 1:12:42
Источник: what.cd
Наличие сканов в содержимом раздачи: да
Треклист:
01. Vittorio Monti: Csardas (4:50)
02. Edward Elgar: Salut d'Amour, Op.12 (2:53)
03. Niccolo Paganini: Variations on one string on a theme from Rossini's Mose in Egitto (6:50)
04. Alexandre Glazounov: Chant du Menestrel, Op.71 (3:54)
05. Mstislav Rostropovich: Humoresque, Op.5 (2:06)
06. Gabriel Faure: Elegie in C minor, Op.24 (6:33)
07. Antonin Dvorak: Waldesruhe, B 173, Op.68, No.5 (5:41)
08. Francis Poulenc: Les Chemins de l'amour (3:25)
09. Camille Saint-Saens: 'Mon coeur s'ouvre a ta voix' from Samson et Dalila (5:58)
10. Jean Francaix: Mouvement perpetuel (2:12)
11. Piotr Illitch Tchaikovski: Valse sentimentale, Op.51, No.6 (2:26)
12. Julet Massenet: Melodie-Elegie, Op.10, No.5 from Les Erinnyes (1:45)
13. David Popper: Elfentanz, Op.39 (2:50)
14. Franz Schubert: Ave Maria, D 839, Op.52, No.6 (4:09)
15. Christoph Willibald Gluck: Ballet des Ombres heureuses (3:15)
16. Ernest Bloch: Prayer from Jewish Life (4:47)
17. Frederic Chopin: Introduction et Polonaise brillante in C major, Op.3 (9:08)
Исполнители:
Edgar Moreau - cello
Pierre-Yves Hodique - piano
Recorded at Salle Cologne, Paris, Eglise protestante Saint-Pierre on September 2-5, 2013.

Лог создания рипа

Exact Audio Copy V1.0 beta 3 from 29. August 2011
EAC extraction logfile from 19. March 2014, 0:24
Edgar Moreau, Pierre-Yves Hodique / Play: Works for Cello and Piano
Used drive : TSSTcorpCDDVDW SN-208BB Adapter: 0 ID: 1
Read mode : Secure
Utilize accurate stream : Yes
Defeat audio cache : Yes
Make use of C2 pointers : No
Read offset correction : 6
Overread into Lead-In and Lead-Out : No
Fill up missing offset samples with silence : Yes
Delete leading and trailing silent blocks : No
Null samples used in CRC calculations : Yes
Used interface : Native Win32 interface for Win NT & 2000
Gap handling : Appended to previous track
Used output format : User Defined Encoder
Selected bitrate : 320 kBit/s
Quality : High
Add ID3 tag : No
Command line compressor : C:\Program Files (x86)\Exact Audio Copy\Flac\flac.exe
Additional command line options : -8 -V -T "ARTIST=%artist%" -T "TITLE=%title%" -T "ALBUM=%albumtitle%" -T "DATE=%year%" -T "TRACKNUMBER=%tracknr%" -T "GENRE=%genre%" -T "PERFORMER=%albuminterpret%" -T "COMPOSER=%composer%" %haslyrics%--tag-from-file=LYRICS="%lyricsfile%"%haslyrics% -T "ALBUMARTIST=%albumartist%" -T "DISCNUMBER=%cdnumber%" -T "TOTALDISCS=%totalcds%" -T "TOTALTRACKS=%numtracks%" -T "COMMENT=%comment%" %source% -o %dest%
TOC of the extracted CD
Track | Start | Length | Start sector | End sector
---------------------------------------------------------
1 | 0:00.00 | 4:49.70 | 0 | 21744
2 | 4:49.70 | 2:53.34 | 21745 | 34753
3 | 7:43.29 | 6:49.52 | 34754 | 65480
4 | 14:33.06 | 3:53.53 | 65481 | 83008
5 | 18:26.59 | 2:05.45 | 83009 | 92428
6 | 20:32.29 | 6:32.64 | 92429 | 121892
7 | 27:05.18 | 5:40.40 | 121893 | 147432
8 | 32:45.58 | 3:25.17 | 147433 | 162824
9 | 36:11.00 | 5:58.02 | 162825 | 189676
10 | 42:09.02 | 2:11.46 | 189677 | 199547
11 | 44:20.48 | 2:26.02 | 199548 | 210499
12 | 46:46.50 | 1:44.57 | 210500 | 218356
13 | 48:31.32 | 2:50.32 | 218357 | 231138
14 | 51:21.64 | 4:09.11 | 231139 | 249824
15 | 55:31.00 | 3:15.21 | 249825 | 264470
16 | 58:46.21 | 4:47.10 | 264471 | 286005
17 | 63:33.31 | 9:07.65 | 286006 | 327095
Track 1
Filename D:\Flac\Edgar Moreau, Pierre-Yves Hodique - Play; Works for Cello and Piano (2014) [FLAC]\01 Csárdás.wav
Pre-gap length 0:00:02.00
Peak level 77.2 %
Extraction speed 3.1 X
Track quality 100.0 %
Test CRC A387208B
Copy CRC A387208B
Track not present in AccurateRip database
Copy OK
Track 2
Filename D:\Flac\Edgar Moreau, Pierre-Yves Hodique - Play; Works for Cello and Piano (2014) [FLAC]\02 Salut d'Amour (Liebesgruß) Op. 12.wav
Peak level 65.9 %
Extraction speed 3.1 X
Track quality 100.0 %
Test CRC 266F5ED7
Copy CRC 266F5ED7
Track not present in AccurateRip database
Copy OK
Track 3
Filename D:\Flac\Edgar Moreau, Pierre-Yves Hodique - Play; Works for Cello and Piano (2014) [FLAC]\03 Variations on one string.wav
Peak level 71.3 %
Extraction speed 3.3 X
Track quality 99.9 %
Test CRC E8334C68
Copy CRC E8334C68
Track not present in AccurateRip database
Copy OK
Track 4
Filename D:\Flac\Edgar Moreau, Pierre-Yves Hodique - Play; Works for Cello and Piano (2014) [FLAC]\04 Chant du Ménestrel Op. 71.wav
Peak level 62.9 %
Extraction speed 3.1 X
Track quality 99.9 %
Test CRC AA01E0CC
Copy CRC AA01E0CC
Track not present in AccurateRip database
Copy OK
Track 5
Filename D:\Flac\Edgar Moreau, Pierre-Yves Hodique - Play; Works for Cello and Piano (2014) [FLAC]\05 Humoresque Op. 5.wav
Peak level 84.9 %
Extraction speed 3.5 X
Track quality 100.0 %
Test CRC 593880B1
Copy CRC 593880B1
Track not present in AccurateRip database
Copy OK
Track 6
Filename D:\Flac\Edgar Moreau, Pierre-Yves Hodique - Play; Works for Cello and Piano (2014) [FLAC]\06 Elégie Op. 24.wav
Peak level 90.0 %
Extraction speed 4.4 X
Track quality 100.0 %
Test CRC 54F5B7FE
Copy CRC 54F5B7FE
Track not present in AccurateRip database
Copy OK
Track 7
Filename D:\Flac\Edgar Moreau, Pierre-Yves Hodique - Play; Works for Cello and Piano (2014) [FLAC]\07 Waldesruhe Op. 68 No. 5.wav
Peak level 83.1 %
Extraction speed 4.6 X
Track quality 100.0 %
Test CRC 166EFFE4
Copy CRC 166EFFE4
Track not present in AccurateRip database
Copy OK
Track 8
Filename D:\Flac\Edgar Moreau, Pierre-Yves Hodique - Play; Works for Cello and Piano (2014) [FLAC]\08 Les Chemins de l'amour.wav
Peak level 84.4 %
Extraction speed 4.5 X
Track quality 100.0 %
Test CRC 386BA94E
Copy CRC 386BA94E
Track not present in AccurateRip database
Copy OK
Track 9
Filename D:\Flac\Edgar Moreau, Pierre-Yves Hodique - Play; Works for Cello and Piano (2014) [FLAC]\09 'Mon coeur s'ouvre à ta voix' (from Samson et Dalila).wav
Peak level 74.8 %
Extraction speed 5.0 X
Track quality 100.0 %
Test CRC 8FBBC848
Copy CRC 8FBBC848
Track not present in AccurateRip database
Copy OK
Track 10
Filename D:\Flac\Edgar Moreau, Pierre-Yves Hodique - Play; Works for Cello and Piano (2014) [FLAC]\10 Mouvement perpétuel.wav
Peak level 61.5 %
Extraction speed 4.4 X
Track quality 100.0 %
Test CRC 3C932879
Copy CRC 3C932879
Track not present in AccurateRip database
Copy OK
Track 11
Filename D:\Flac\Edgar Moreau, Pierre-Yves Hodique - Play; Works for Cello and Piano (2014) [FLAC]\11 Valse sentimentale Op. 51 No. 6.wav
Peak level 48.0 %
Extraction speed 4.7 X
Track quality 100.0 %
Test CRC 4C256D70
Copy CRC 4C256D70
Track not present in AccurateRip database
Copy OK
Track 12
Filename D:\Flac\Edgar Moreau, Pierre-Yves Hodique - Play; Works for Cello and Piano (2014) [FLAC]\12 Mélodie-Elégie Op. 10 No. 5 (from Les Erinnyes).wav
Peak level 52.4 %
Extraction speed 4.4 X
Track quality 100.0 %
Test CRC 9223A8AB
Copy CRC 9223A8AB
Track not present in AccurateRip database
Copy OK
Track 13
Filename D:\Flac\Edgar Moreau, Pierre-Yves Hodique - Play; Works for Cello and Piano (2014) [FLAC]\13 Elfentanz Op. 39 (Dance of the Elves).wav
Peak level 60.1 %
Extraction speed 4.9 X
Track quality 100.0 %
Test CRC 84720ABF
Copy CRC 84720ABF
Track not present in AccurateRip database
Copy OK
Track 14
Filename D:\Flac\Edgar Moreau, Pierre-Yves Hodique - Play; Works for Cello and Piano (2014) [FLAC]\14 Ave Maria Op. 52 No. 6.wav
Peak level 46.3 %
Extraction speed 5.3 X
Track quality 100.0 %
Test CRC 05D4D602
Copy CRC 05D4D602
Track not present in AccurateRip database
Copy OK
Track 15
Filename D:\Flac\Edgar Moreau, Pierre-Yves Hodique - Play; Works for Cello and Piano (2014) [FLAC]\15 Ballet des Ombres heureuses (from Orphée et Eurydice).wav
Peak level 51.3 %
Extraction speed 5.3 X
Track quality 100.0 %
Test CRC 5C23F765
Copy CRC 5C23F765
Track not present in AccurateRip database
Copy OK
Track 16
Filename D:\Flac\Edgar Moreau, Pierre-Yves Hodique - Play; Works for Cello and Piano (2014) [FLAC]\16 Prayer (from Jewish Life).wav
Peak level 61.9 %
Extraction speed 4.7 X
Track quality 99.9 %
Test CRC C4C51D8A
Copy CRC C4C51D8A
Track not present in AccurateRip database
Copy OK
Track 17
Filename D:\Flac\Edgar Moreau, Pierre-Yves Hodique - Play; Works for Cello and Piano (2014) [FLAC]\17 Introduction et Polonaise brillante Op. 3.wav
Peak level 73.2 %
Extraction speed 6.3 X
Track quality 100.0 %
Test CRC 3F402394
Copy CRC 3F402394
Track not present in AccurateRip database
Copy OK
None of the tracks are present in the AccurateRip database
No errors occurred
End of status report
---- CUETools DB Plugin V2.1.4
[CTDB TOCID: 3bzgBH3dmbzPtVsLU1FLXfxEUuI-] database access error: Le nom distant n'a pas pu être résolu: 'db.cuetools.net'
==== Log checksum D81BF249F7A41638E743393264591FA52B2541F0FA92F046BE9F95DE987111FD ====

Содержание индексной карты (.CUE)

REM GENRE Classical
REM DATE 2014
REM DISCID F2110911
REM COMMENT "ExactAudioCopy v1.0b3"
CATALOG 0825646369584
PERFORMER "Edgar Moreau & Pierre-Yves Hodique"
TITLE "Play: Works for Cello and Piano"
FILE "01 - Monti- Csardas.wav" WAVE
TRACK 01 AUDIO
TITLE "Monti: Csardas"
PERFORMER "Edgar Moreau & Pierre-Yves Hodique"
ISRC GBAYC1302831
INDEX 01 00:00:00
FILE "02 - Elgar- Salut d'Amour, Op.12.wav" WAVE
TRACK 02 AUDIO
TITLE "Elgar: Salut d'Amour, Op.12"
PERFORMER "Edgar Moreau & Pierre-Yves Hodique"
ISRC GBAYC1302832
INDEX 01 00:00:00
FILE "03 - Paganini- Variations on one string on a theme from Rossini's Mose in Egitto.wav" WAVE
TRACK 03 AUDIO
TITLE "Paganini: Variations on one string on a theme from Rossini's Mose in Egitto"
PERFORMER "Edgar Moreau & Pierre-Yves Hodique"
ISRC GBAYC1302832
INDEX 01 00:00:00
FILE "04 - Glazounov- Chant du Menestrel, Op.71.wav" WAVE
TRACK 04 AUDIO
TITLE "Glazounov: Chant du Menestrel, Op.71"
PERFORMER "Edgar Moreau & Pierre-Yves Hodique"
ISRC GBAYC1302834
INDEX 01 00:00:00
FILE "05 - Rostropovich- Humoresque, Op.5.wav" WAVE
TRACK 05 AUDIO
TITLE "Rostropovich: Humoresque, Op.5"
PERFORMER "Edgar Moreau & Pierre-Yves Hodique"
ISRC GBAYC1302835
INDEX 01 00:00:00
FILE "06 - Faure- Elegie in C minor, Op.24.wav" WAVE
TRACK 06 AUDIO
TITLE "Faure: Elegie in C minor, Op.24"
PERFORMER "Edgar Moreau & Pierre-Yves Hodique"
ISRC GBAYC1302836
INDEX 01 00:00:00
FILE "07 - Dvorak- Waldesruhe, B 173, Op.68, No.5.wav" WAVE
TRACK 07 AUDIO
TITLE "Dvorak: Waldesruhe, B 173, Op.68, No.5"
PERFORMER "Edgar Moreau & Pierre-Yves Hodique"
ISRC GBAYC1302837
INDEX 01 00:00:00
FILE "08 - Poulenc- Les Chemins de l'amour.wav" WAVE
TRACK 08 AUDIO
TITLE "Poulenc: Les Chemins de l'amour"
PERFORMER "Edgar Moreau & Pierre-Yves Hodique"
ISRC GBAYC1302838
INDEX 01 00:00:00
FILE "09 - Saint-Saens- 'Mon coeur s'ouvre a ta voix' from Samson et Dalila.wav" WAVE
TRACK 09 AUDIO
TITLE "Saint-Saens: 'Mon coeur s'ouvre a ta voix' from Samson et Dalila"
PERFORMER "Edgar Moreau & Pierre-Yves Hodique"
ISRC GBAYC1302839
INDEX 01 00:00:00
FILE "10 - Francaix- Mouvement perpetuel.wav" WAVE
TRACK 10 AUDIO
TITLE "Francaix: Mouvement perpetuel"
PERFORMER "Edgar Moreau & Pierre-Yves Hodique"
ISRC GBAYC1302840
INDEX 01 00:00:00
FILE "11 - Tchaikovski- Valse sentimentale, Op.51, No.6.wav" WAVE
TRACK 11 AUDIO
TITLE "Tchaikovski: Valse sentimentale, Op.51, No.6"
PERFORMER "Edgar Moreau & Pierre-Yves Hodique"
ISRC GBAYC1302841
INDEX 01 00:00:00
FILE "12 - Massenet- Melodie-Elegie, Op.10, No.5 from Les Erinnyes.wav" WAVE
TRACK 12 AUDIO
TITLE "Massenet: Melodie-Elegie, Op.10, No.5 from Les Erinnyes"
PERFORMER "Edgar Moreau & Pierre-Yves Hodique"
ISRC GBAYC1302842
INDEX 01 00:00:00
FILE "13 - Popper- Elfentanz, Op.39.wav" WAVE
TRACK 13 AUDIO
TITLE "Popper: Elfentanz, Op.39"
PERFORMER "Edgar Moreau & Pierre-Yves Hodique"
ISRC GBAYC1302843
INDEX 01 00:00:00
FILE "14 - Schubert- Ave Maria, D 839, Op.52, No.6.wav" WAVE
TRACK 14 AUDIO
TITLE "Schubert: Ave Maria, D 839, Op.52, No.6"
PERFORMER "Edgar Moreau & Pierre-Yves Hodique"
ISRC GBAYC1302844
INDEX 01 00:00:00
FILE "15 - Gluck- Ballet des Ombres heureuses.wav" WAVE
TRACK 15 AUDIO
TITLE "Gluck: Ballet des Ombres heureuses"
PERFORMER "Edgar Moreau & Pierre-Yves Hodique"
ISRC GBAYC1302844
INDEX 01 00:00:00
FILE "16 - Bloch- Prayer from Jewish Life.wav" WAVE
TRACK 16 AUDIO
TITLE "Bloch: Prayer from Jewish Life"
PERFORMER "Edgar Moreau & Pierre-Yves Hodique"
ISRC GBAYC1302846
INDEX 01 00:00:00
FILE "17 - Chopin- Introduction et Polonaise brillante in C major, Op.3.wav" WAVE
TRACK 17 AUDIO
TITLE "Chopin: Introduction et Polonaise brillante in C major, Op.3"
PERFORMER "Edgar Moreau & Pierre-Yves Hodique"
ISRC GBAYC1302847
INDEX 01 00:00:00

Отчет CUETools

[CUETools log; Date: 11.02.2016 1:02:35; Version: 2.1.5]
[CTDB TOCID: 3bzgBH3dmbzPtVsLU1FLXfxEUuI-] found.
Track | CTDB Status
1 | (13/13) Accurately ripped
2 | (13/13) Accurately ripped
3 | (13/13) Accurately ripped
4 | (13/13) Accurately ripped
5 | (13/13) Accurately ripped
6 | (13/13) Accurately ripped
7 | (13/13) Accurately ripped
8 | (13/13) Accurately ripped
9 | (13/13) Accurately ripped
10 | (13/13) Accurately ripped
11 | (13/13) Accurately ripped
12 | (13/13) Accurately ripped
13 | (13/13) Accurately ripped
14 | (13/13) Accurately ripped
15 | (13/13) Accurately ripped
16 | (13/13) Accurately ripped
17 | (13/13) Accurately ripped
[AccurateRip ID: 002c584c-0229df42-f2110911] found.
Track [ CRC | V2 ] Status
01 [3073c6ae|73f3d865] (0+6/6) Accurately ripped
02 [f600fe97|abc03155] (0+6/6) Accurately ripped
03 [fcae63b6|ad3e3d93] (0+6/6) Accurately ripped
04 [c3053c18|053649cd] (0+6/6) Accurately ripped
05 [48ef4539|74c679a7] (0+6/6) Accurately ripped
06 [da468057|9f6e43ee] (0+6/6) Accurately ripped
07 [bc7811aa|4ebcc6f2] (0+6/6) Accurately ripped
08 [e84b1ac1|042c4211] (0+6/6) Accurately ripped
09 [5a43817d|bbdb90a7] (0+6/6) Accurately ripped
10 [ee12fa16|8e8c6b4c] (0+6/6) Accurately ripped
11 [1295fdab|cc38ae12] (0+6/6) Accurately ripped
12 [4c126a4c|40972ac3] (0+6/6) Accurately ripped
13 [ed8c31fe|46038774] (0+6/6) Accurately ripped
14 [16d60c60|b4563d1e] (0+6/6) Accurately ripped
15 [5b006ca5|d6f7bd37] (0+6/6) Accurately ripped
16 [0ef6e47c|fea1cc68] (0+6/6) Accurately ripped
17 [de73f6f4|c550d55e] (0+6/6) Accurately ripped
Track Peak [ CRC32 ] [W/O NULL] [ LOG ]
-- 90,0 [EAC23B91] [18E56ED5]
01 77,2 [A387208B] [E3D9CD1F] CRC32
02 65,9 [266F5ED7] [4D5917CB] CRC32
03 71,3 [E8334C68] [7E7AB45E] CRC32
04 62,9 [AA01E0CC] [0C429C4F] CRC32
05 84,9 [593880B1] [4A7AB525] CRC32
06 90,0 [54F5B7FE] [D0DE8027] CRC32
07 83,1 [166EFFE4] [5DC375D6] CRC32
08 84,4 [386BA94E] [01C8A9BD] CRC32
09 74,8 [8FBBC848] [D2BB057D] CRC32
10 61,5 [3C932879] [DCE2D4C3] CRC32
11 48,0 [4C256D70] [C1BB4FCE] CRC32
12 52,4 [9223A8AB] [5639E31B] CRC32
13 60,1 [84720ABF] [37A2AE32] CRC32
14 46,3 [05D4D602] [E42800B8] CRC32
15 51,3 [5C23F765] [9DD15452] CRC32
16 61,9 [C4C51D8A] [B7316C4C] CRC32
17 73,2 [3F402394] [50156308] CRC32

Об альбоме (сборнике)

At fifteen years of age, Moreau won the Young Soloist Prize at the Rostropovich Competition; then at seventeen he won second prize at the International Tchaikovsky Competition. He signed an exclusive contract with Erato/Warner Classics, and for this debut album (the title apparently inspired by modern computer usage, as in "Press the PLAY button"), Moreau explains that he "wanted a succession of genre pieces since they are also an integral part of the cello repertoire." He goes on to say that he "wanted to record a selection of them ranging from vocal transcription to virtuoso encore. With my faithful chamber music partner Pierre-Yves Hodique, we have often had fun punctuating our concerts and recitals with some of these pieces, and so it seemed obvious to us to feature these compositions that are always appreciated by the audience." In other words, the program comprises mainly brief, entertaining showpieces meant to highlight the talents of musicians. The beloved British conductor Sir Thomas Beecham would have called these selections bon-bons.
As it is, the program works pretty well. There is nothing here long enough to tax the patience of non or only mildly interested classical music listeners; the performers present the pieces in sterling interpretations; and Erato provide them pretty good sound. It's a winning combination, even if so many (seventeen tracks) short works (nothing over five or ten minutes each) may seem a bit spread out shotgun style for dedicated classical fans.
I think the main thing about all the performances on the disc is that Moreau and Hodique appear to be having a good time playing them. Not only are both artists meticulous virtuosos, they seem to love the music they're playing and love playing it together. Their musical partnership yields energetic, pleasurable, and technically satisfying results, the two performers continuously engaging in friendly instrumental dialogue and obvious good humor, even in the overtly sentimental tunes. The album is a good deal of fun.
Since the music Moreau and Hodique have chosen is very popular and comes from just about everybody in the Romantic era and a little into the modern, let me point out just a few of the works I especially enjoyed. They begin with a genuine curtain-raiser in Vittorio Monti's Csardas, probably that composer's most-famous tune. Like the Hungarian dances that influenced it, the piece starts with a slow, poignant introduction, followed by a rousingly fast, Gypsy-inflected conclusion. The performers handle both segments with equal poise, bringing out the work's sentimental qualities and ending it in happy good cheer. Moreau's cello work sounds appropriately soulful and exhilarating by turns, and Hodique proves an able accompanist by matching but never overshadowing him at every turn.
And so it goes. Elgar's Salut d'amour sounds sweetly beguiling in Moreau's hands; Faure's Elegie is properly sad and wistful; Poulenc's Les Chemins de l'amour has all the qualities of a popular song in waltz time; Tchaikovsky's Valse sentimentale is satisfactorily melancholic; Popper's "Dance of the Elves" has a Mendelssohnian sparkle; Schubert's Ave Maria is as melodic as you'll hear; and the duo go out in style with Chopin's Introduction et Polonaise brillante. Then there are all the good things in between these numbers. The disc is a treat.
For the home listener, the question of how well Mr. Moreau might handle a longer, more-serious piece of music--a concerto or a sonata, for example--remains unanswered. But one thing is sure from listening to this album of short favorites: the man plays a mean cello.
Happily, too, it's one of the best-sounding discs I've heard from Erato. The two instrumentalists appear well positioned between the speakers. Both instruments are clear and detailed. Dynamic range, impact, and transient response are all suitable for the occasion. Moreover, air, bloom, room resonance, and dimensionality sound realistic enough to give the presentation an overall lifelike feeling. Nicely done, Erato.
-- John J. Puccio



Показать сообщения:    

Текущее время: 11-Дек 07:13

Часовой пояс: UTC + 3


Вы не можете начинать темы
Вы не можете отвечать на сообщения
Вы не можете редактировать свои сообщения
Вы не можете удалять свои сообщения
Вы не можете голосовать в опросах
Вы не можете прикреплять файлы к сообщениям
Вы не можете скачивать файлы