Скорей бы воскресенье / Веселенькое воскресенье / Vivement dimanche! / Finally, Sunday (Франсуа Трюффо / François Truffaut) [1983, Франция, комедия, детектив, BDRip] Dub + 2хMVO (Кармен Видео, Домашний) + sub Rus, Eng + original fre


 

[Цитировать]

Скорей бы воскресенье / Веселенькое воскресенье / Vivement dimanche! / Finally, Sunday / Confidentially Yours
Страна: Франция
Жанр: комедия, детектив
Год выпуска: 1983
Продолжительность: 01:50:49
Перевод: Профессиональный (дублированный) - Советский дубляж со вставками многоголосого
Перевод: Профессиональный (многоголосый закадровый) - Кармен Видео
Перевод: Профессиональный (многоголосый закадровый) - т/к «Домашний»
Cубтитры: русские, английские
Оригинальная аудиодорожка: французский

Режиссер: Франсуа Трюффо / François Truffaut
В ролях: Фанни Ардан, Жан-Луи Трентиньян, Жан-Пьер Кальфон, Филипп Лоденбаш, Филипп Морье-Жену, Ксавьер Сен-Макари, Жан-Луи Ришар, Каролин Сиоль, Кастель Касти, Аник Белобр
Описание: На охоте при невыясненных обстоятельствах застрелен некий Масулье. Подозрение падает на другого охотника - парижского риэлтера Жульена Верселя, тем более что редкий тип дроби в его патронах совпадает с дробью, обнаруженной в теле жертвы, а жена Верселя оказалась любовницей убитого. Ее тоже вскоре подстерегает загадочная смерть - и снова Версель лишен алиби. Кажется, что он загнан в угол, но тут на помощь приходит его секретарша Барбара, которая пускается в собственное расследование…
Качество видео: BDRip
Формат видео: AVI
Видео: 720x432 (1.67:1), 24 fps, XviD build 73 ~2245 kbps avg, 0.30 bit/pixel
Аудио: 48 kHz, AC3 Dolby Digital, 2/0 (L,R) ch, ~192 kbps - дубляж
Аудио: 48 kHz, AC3 Dolby Digital, 2/0 (L,R) ch, ~192 kbps - Кармен Видео
Аудио: 48 kHz, AC3 Dolby Digital, 2/0 (L,R) ch, ~192 kbps - т/к «Домашний»
Аудио: 48 kHz, AC3 Dolby Digital, 1 ch, ~192 kbps - оригинал (отдельно)

MediaInfo

Общее
Полное имя : H:\Vivement.dimanche!.1983.bdrip_[2.18]_[teko]\Vivement.dimanche!.1983.bdrip_[2.18].avi
Формат : AVI
Формат/Информация : Audio Video Interleave
Профиль формата : OpenDML
Размер файла : 2,19 Гбайт
Продолжительность : 1 ч. 50 м.
Общий поток : 2828 Кбит/сек
Программа кодирования : VirtualDubMod 1.5.10.3 | www.virtualdub-fr.org || (build 2550/release)
Библиотека кодирования : VirtualDubMod build 2550/release
Видео
Идентификатор : 0
Формат : MPEG-4 Visual
Профиль формата : Advanced Simple@L5
Параметр BVOP формата : 2
Параметр QPel формата : Нет
Параметр GMC формата : Без точки перехода
Параметр матрицы формата : Выборочная
Идентификатор кодека : XVID
Идентификатор кодека/Подсказка : XviD
Продолжительность : 1 ч. 50 м.
Битрейт : 2229 Кбит/сек
Ширина : 720 пикселей
Высота : 432 пикселя
Соотношение сторон : 1,667
Частота кадров : 24,000 кадра/сек
Цветовое пространство : YUV
Субдискретизация насыщенности : 4:2:0
Битовая глубина : 8 бит
Тип развёртки : Прогрессивная
Метод сжатия : С потерями
Бит/(Пиксели*Кадры) : 0.299
Размер потока : 1,73 Гбайт (79%)
Библиотека кодирования : XviD 73
Аудио #1
Идентификатор : 1
Формат : AC-3
Формат/Информация : Audio Coding 3
Расширение режима : CM (complete main)
Параметр Endianness формата : Big
Идентификатор кодека : 2000
Продолжительность : 1 ч. 50 м.
Вид битрейта : Постоянный
Битрейт : 192 Кбит/сек
Каналы : 2 канала
Расположение каналов : Front: L R
Частота : 48,0 КГц
Битовая глубина : 16 бит
Метод сжатия : С потерями
Размер потока : 152 Мбайт (7%)
Выравнивание : Разделение по промежуткам
Продолжительность промежутка : 42 мс. (1,00 видеокадр)
Время предзагрузки промежутка : 500 мс.
Аудио #2
Идентификатор : 2
Формат : AC-3
Формат/Информация : Audio Coding 3
Расширение режима : CM (complete main)
Параметр Endianness формата : Big
Идентификатор кодека : 2000
Продолжительность : 1 ч. 50 м.
Вид битрейта : Постоянный
Битрейт : 192 Кбит/сек
Каналы : 2 канала
Расположение каналов : Front: L R
Частота : 48,0 КГц
Битовая глубина : 16 бит
Метод сжатия : С потерями
Размер потока : 152 Мбайт (7%)
Выравнивание : Разделение по промежуткам
Продолжительность промежутка : 42 мс. (1,00 видеокадр)
Время предзагрузки промежутка : 500 мс.
Аудио #3
Идентификатор : 3
Формат : AC-3
Формат/Информация : Audio Coding 3
Расширение режима : CM (complete main)
Параметр Endianness формата : Big
Идентификатор кодека : 2000
Продолжительность : 1 ч. 50 м.
Вид битрейта : Постоянный
Битрейт : 192 Кбит/сек
Каналы : 2 канала
Расположение каналов : Front: L R
Частота : 48,0 КГц
Битовая глубина : 16 бит
Метод сжатия : С потерями
Размер потока : 152 Мбайт (7%)
Выравнивание : Разделение по промежуткам
Продолжительность промежутка : 42 мс. (1,00 видеокадр)
Время предзагрузки промежутка : 500 мс.



Показать сообщения:    

Текущее время: 09-Дек 14:35

Часовой пояс: UTC + 3


Вы не можете начинать темы
Вы не можете отвечать на сообщения
Вы не можете редактировать свои сообщения
Вы не можете удалять свои сообщения
Вы не можете голосовать в опросах
Вы не можете прикреплять файлы к сообщениям
Вы не можете скачивать файлы