Сирийская невеста / The Syrian Bride / Ha-kala ha-surit (Эран Риклис / Eran Riklis) [2004, Израиль, Франция, Германия, комедия, драма, DVDRip-AVC] DVO (СВ-Дубль) + Original (Ara) + Sub (Rus, Eng)


Статистика раздачи [Обновить пиров]
Размер:  2.19 GB   |    Зарегистрирован:  8 месяцев 17 дней   |    Скачан:  0 раз

Полного источника не было: Никогда

 
   
 
 
 

[Цитировать]

Сирийская невеста / The Syrian Bride / Ha-kala ha-surit Страна: Франция, Германия, Израиль
Жанр: комедия, драма
Год выпуска: 2004
Продолжительность: 01:32:37-Перевод: Профессиональный (двухголосый закадровый)
"СВ-Дубль" (по заказу телеканала "Культура")
Оригинальная аудиодорожка: арабский
Cубтитры: русские, английские-Режиссер: Эран Риклис / Eran Riklis-В ролях-Хиам Аббасс (Hiam Abbass) Макрам Коури (Makram Khoury) Клара Коури (Clara Khoury) Ашраф Бархом (Ashraf Barhom) Эйд Шити (Eyad Sheety) Эвелин Каплун (Evelyn Kaplun) Джули-Энн Рот (Julie-Anne Roth) Аднан Тарабши (Adnan Tarabshi) Марлен Баджали (Marlene Bajali) Ури Гавриэль (Uri Gavriel) Алон Дахан (Alon Dahan) Роберт Хениг (Robert Henig) Дирар Сулейман (Dirar Suleiman) Ранин Боулос (Ranin Boulos) Ханна Абоу-Манне (Hanna Abou-Manneh)-Описание-Один день из жизни друзской семьи в израильском приграничном селении на Голанских высотах. Жених героини, популярный телевизионный актер, находится на сирийской территории, невеста Мона – на израильской. Помимо линии размежевания и нейтральной полосы, еще множество политических, этнических, религиозных барьеров разделяет израильтян, сирийцев, европейцев из миротворческого контингента и самих друзов, разъехавшихся по разным странам, но пытающихся сохранить свою идентичность и встретиться на свадьбе, которой вряд ли суждено состояться. Мало того, невеста перешедшая границу навсегда лишается возможности приехать в Израиль обратно (Голанские высоты - оккупированая Израилем сирийская территория). Пересечь границу невозможно, каждый из чиновников отстаивает свою правду, этот клубок противоречий распутать можно только чудом. Таким чудом, по мысли режиссера и сценариста Эрана Риклиса (начинал он, кстати, в рекламе, является автором пяти полнометражных картин), может стать нормальное человеческое сочувствие, оказавшееся выше навязанных политических, сословных и иных стереотипов.
-Качество видео: DVDRip
Исходное видео: DVD9
Контейнер: MKV-Видео: AVC, ~2700 kbps, 698x568@992x568 (16:9), 25.000 fps
Аудио: AC-3, 192 kbps, Dolby Digital, 2 (L,R) ch, 48 KHz |DVO|
Аудио: AC-3, 448 kbps, Dolby Digital, 3/2 (L,C,R,l,r) + LFE ch, 48 KHz |Original|
Формат субтитров: softsub (SRT)-

MediaInfoх264

VIDEO ENCODING
------------------------------
Encoding video to: J:\Temp\0228.264
x264 Q16.9 698x568 25.000fps (138926 frames)
avs4x26x.exe: -L x264_64.exe --crf 16.9 --preset placebo --profile high --level 4.1 --ref 14 --aq-mode 3 --aq-strength 0.9 --deblock -3:-2 --merange 48 --bframes 12 --vbv-maxrate 50000 --vbv-bufsize 62500 --me umh --no-mbtree --colorprim bt709 --transfer bt709 --colormatrix bt709 --sar 64:45 --output "J:\Temp\0228.264" "J:\Temp\0228.avs"
raw [info]: 698x568p 64:45 @ 25/1 fps (cfr)
x264 [info]: using SAR=64/45
x264 [info]: using cpu capabilities: MMX2 SSE2Fast LZCNT
x264 [info]: profile High, level 4.1
x264 [info]: frame I:1016 Avg QP:16.66 size: 69924
x264 [info]: frame P:26385 Avg QP:18.02 size: 30946
x264 [info]: frame B:111525 Avg QP:19.88 size: 9146
x264 [info]: consecutive B-frames: 1.1% 1.2% 5.9% 9.6% 7.0% 69.3% 2.7% 0.6% 1.3% 1.1% 0.1% 0.3% 0.0%
x264 [info]: mb I I16..4: 2.8% 68.6% 28.6%
x264 [info]: mb P I16..4: 0.4% 12.1% 2.2% P16..4: 28.2% 34.2% 18.0% 3.4% 0.4% skip: 1.0%
x264 [info]: mb B I16..4: 0.1% 1.1% 0.2% B16..8: 31.0% 23.3% 5.1% direct: 9.2% skip:30.1% L0:33.4% L1:43.1% BI:23.5%
x264 [info]: 8x8 transform intra:79.6% inter:45.0%
x264 [info]: direct mvs spatial:100.0% temporal:0.0%
x264 [info]: coded y,uvDC,uvAC intra: 94.7% 85.7% 70.5% inter: 33.7% 20.9% 3.2%
x264 [info]: i16 v,h,dc,p: 35% 15% 4% 45%
x264 [info]: i8 v,h,dc,ddl,ddr,vr,hd,vl,hu: 16% 7% 12% 9% 11% 12% 9% 12% 11%
x264 [info]: i4 v,h,dc,ddl,ddr,vr,hd,vl,hu: 24% 7% 6% 8% 11% 14% 8% 12% 9%
x264 [info]: i8c dc,h,v,p: 36% 24% 25% 15%
x264 [info]: Weighted P-Frames: Y:2.9% UV:1.5%
x264 [info]: ref P L0: 40.3% 12.1% 19.2% 5.3% 5.6% 3.3% 3.7% 1.7% 2.0% 1.4% 1.6% 1.1% 1.3% 1.1% 0.1% 0.0%
x264 [info]: ref B L0: 76.0% 10.1% 3.9% 2.3% 1.7% 1.5% 1.2% 0.8% 0.7% 0.7% 0.6% 0.4% 0.1%
x264 [info]: ref B L1: 95.0% 5.0%
x264 [info]: kb/s:2746.13
Полное имя : J:\Раздачи\The_Syrian_Bride_2004_DVDRip_cw.mkv
Формат : Matroska
Версия формата : Version 2
Размер файла : 2,19 Гбайт
Продолжительность : 1 ч. 32 м.
Общий поток : 3388 Кбит/сек
Название фильма : Сирийская невеста / The Syrian Bride / Ha-kala ha-surit (2004) RGTru
Дата кодирования : UTC 2016-02-12 08:06:49
Программа кодирования : mkvmerge v7.8.0 ('River Man') 32bit built on Apr 3 2015 12:11:22
Библиотека кодирования : libebml v1.3.1 + libmatroska v1.4.2
Видео
Идентификатор : 1
Формат : AVC
Формат/Информация : Advanced Video Codec
Профиль формата : High@L4.1
Параметр CABAC формата : Да
Параметр ReFrames формата : 14 кадров
Идентификатор кодека : V_MPEG4/ISO/AVC
Продолжительность : 1 ч. 32 м.
Битрейт : 2681 Кбит/сек
Ширина : 698 пикселей
Высота : 568 пикселей
Соотношение сторон : 16:9
Режим частоты кадров : Постоянный
Частота кадров : 25,000 кадров/сек
Цветовое пространство : YUV
Субдискретизация насыщенности : 4:2:0
Битовая глубина : 8 бит
Тип развёртки : Прогрессивная
Бит/(Пиксели*Кадры) : 0.270
Размер потока : 1,73 Гбайт (79%)
Заголовок : The_Syrian_Bride_2004_DVDRip_cw
Библиотека кодирования : x264 core 146 r2538 121396c
Настройки программы : cabac=1 / ref=14 / deblock=1:-3:-2 / analyse=0x3:0x133 / me=umh / subme=11 / psy=1 / psy_rd=1.00:0.00 / mixed_ref=1 / me_range=48 / chroma_me=1 / trellis=2 / 8x8dct=1 / cqm=0 / deadzone=21,11 / fast_pskip=0 / chroma_qp_offset=-2 / threads=4 / lookahead_threads=1 / sliced_threads=0 / nr=0 / decimate=1 / interlaced=0 / bluray_compat=0 / constrained_intra=0 / bframes=12 / b_pyramid=2 / b_adapt=2 / b_bias=0 / direct=3 / weightb=1 / open_gop=0 / weightp=2 / keyint=250 / keyint_min=25 / scenecut=40 / intra_refresh=0 / rc_lookahead=60 / rc=crf / mbtree=0 / crf=16.9 / qcomp=0.60 / qpmin=0 / qpmax=69 / qpstep=4 / vbv_maxrate=50000 / vbv_bufsize=62500 / crf_max=0.0 / nal_hrd=none / filler=0 / ip_ratio=1.40 / pb_ratio=1.30 / aq=3:0.90
Язык : Russian
Default : Да
Forced : Нет
Цветовой диапазон : Limited
Основные цвета : BT.709
Характеристики трансфера : BT.709
Коэффициенты матрицы : BT.709
Аудио #1
Идентификатор : 2
Формат : AC-3
Формат/Информация : Audio Coding 3
Расширение режима : CM (complete main)
Параметр Endianness формата : Big
Идентификатор кодека : A_AC3
Продолжительность : 1 ч. 32 м.
Вид битрейта : Постоянный
Битрейт : 192 Кбит/сек
Каналы : 2 канала
Расположение каналов : Front: L R
Частота : 44,1 КГц
Битовая глубина : 16 бит
Метод сжатия : С потерями
Размер потока : 127 Мбайт (6%)
Заголовок : DVO СВ-Дубль
Язык : Russian
Default : Да
Forced : Нет
Аудио #2
Идентификатор : 3
Формат : AC-3
Формат/Информация : Audio Coding 3
Расширение режима : CM (complete main)
Параметр Endianness формата : Big
Идентификатор кодека : A_AC3
Продолжительность : 1 ч. 32 м.
Вид битрейта : Постоянный
Битрейт : 448 Кбит/сек
Каналы : 6 каналов
Расположение каналов : Front: L C R, Side: L R, LFE
Частота : 48,0 КГц
Битовая глубина : 16 бит
Метод сжатия : С потерями
Размер потока : 297 Мбайт (13%)
Заголовок : Original
Язык : Arabic
Default : Нет
Forced : Нет
Текст #1
Идентификатор : 4
Формат : UTF-8
Идентификатор кодека : S_TEXT/UTF8
Идентификатор кодека/Информация : UTF-8 Plain Text
Язык : Russian
Default : Нет
Forced : Нет
Текст #2
Идентификатор : 5
Формат : UTF-8
Идентификатор кодека : S_TEXT/UTF8
Идентификатор кодека/Информация : UTF-8 Plain Text
Язык : English
Default : Нет
Forced : НетСкриншотыСравнение с исходником Rip- DVD

[teatrix.ru].t22934.torrent 
Торрент: Зарегистрирован [ 2016-03-21 00:36 ] · D2AA497A49D9F1414851D02CA7972AAE25A1BDDC

Скачать .torrent

Скачать

11 KB

Статус: проверено
Скачан: 0 раз
Размер: 2.19 GB
terms.php



Быстрый ответ

Имя:

      
Для отправки сообщений необходимо включить JavaScript
Показать сообщения:    

Текущее время: 07-Дек 15:34

Часовой пояс: UTC + 3


Вы можете начинать темы
Вы можете отвечать на сообщения
Вы не можете редактировать свои сообщения
Вы не можете удалять свои сообщения
Вы не можете голосовать в опросах
Вы не можете прикреплять файлы к сообщениям
Вы можете скачивать файлы