Шепоты и крики / Viskningar och rop / Cries and Whispers (Ингмар Бергман / Ingmar Bergman) [1972, Швеция, драма, BDRemux 1080p] MVO + Sub Rus, Eng + Original Swe


 

[Цитировать]

-Шепоты и крики / Viskningar och rop / Cries and Whispers-Страна: Швеция
Жанр: драма
Год выпуска: 1972
Продолжительность: 01:31:43
Перевод: Профессиональный (многоголосый закадровый)
Cубтитры: русские, англиские
Оригинальная аудиодорожка: шведский-Режиссер: Ингмар Бергман / Ingmar Bergman
В ролях: Харриет Андерссон (Agnes), Ингрид Тулин (Karin), Лив Ульман (Maria (and her mother)), Кари Сюльван (Anna), Андерс Эк (Isak, the priest), Инга Гилль (Story teller), Эрланд Юзефсон (David, the doctor), Хеннинг Моритцен (Joakim, Maria's husband), Георг Орлин (Fredrik, Karin's husband), Ингмар Бергман (рассказчик, озвучка, в титрах не указан, озвучка), Ингрид Бергман (Spectator, в титрах не указана), Лена Бергман (Maria as a child, в титрах не указана)-Описание: Великолепно снятая история жизни умирающей женщины, ее сестер и служанки. Прикованная к постели и медленно умирающая Агнес уже не в силах примирить присматривающих за ней сестер, Карин и Марию. Да и сестры уже не слишком заботятся о ней, переложив все заботы о больной на плечи преданной служанки Анны... Лишь она может принести Агнес некоторое утешение.
Наверное, одна из самых сильных и страшных картин Бергмана, в которой он проводит весьма недвусмысленные параллели между человеческими отношениями своих персонажей и героями Евангелия- -Сэмпл: https://yadi.sk/d/965sg0w5ofWRw-Тип релиза: BDRemux 1080p
Контейнер: MKV
Видео: MPEG-4 AVC Video / 35075 kbps / 1080p / 23.976 fps / 16:9 / High Profile 4.1
Аудио: Dolby Digital Audio Russian 2.0 / 48 kHz / 192 kbps
Аудио 2: DTS-HD Master Audio Swedish 715 kbps 1.0 / 48 kHz / 24-bit (DTS Core: 1.0 / 48 kHz / 255 kbps / 24-bit)
Аудио 3: English / Dolby Digital Audio / 1.0 / 48 kHz / 192 kbps
Формат субтитров: softsub (SRT)

MI

General
Unique ID : 227400812645807690130917455560774343713 (0xAB13CDAE96977CAE88B8A3E3D8315C21)
Complete name : V:\Фильмы\Ингмар Бергман\Шепоты и крики (1972. Viskningar och rop).mkv
Format : Matroska
Format version : Version 2
File size : 23.1 GiB
Duration : 1h 31mn
Overall bit rate mode : Variable
Overall bit rate : 36.0 Mbps
Movie name : Release for RuTracker
Encoded date : UTC 2016-02-11 12:22:21
Writing application : mkvmerge v4.9.1 ('Ich will') сборка от Jul 11 2011 23:53:15
Writing library : libebml v1.2.1 + libmatroska v1.1.1
Video
ID : 1
Format : AVC
Format/Info : Advanced Video Codec
Format profile : High@L4.1
Format settings, CABAC : Yes
Format settings, ReFrames : 4 frames
Codec ID : V_MPEG4/ISO/AVC
Duration : 1h 31mn
Bit rate mode : Variable
Maximum bit rate : 37.0 Mbps
Width : 1 920 pixels
Height : 1 080 pixels
Display aspect ratio : 16:9
Frame rate mode : Constant
Frame rate : 23.976 fps
Color space : YUV
Chroma subsampling : 4:2:0
Bit depth : 8 bits
Scan type : Progressive
Language : Swedish
Default : Yes
Forced : No
Audio #1
ID : 2
Format : AC-3
Format/Info : Audio Coding 3
Mode extension : CM (complete main)
Format settings, Endianness : Big
Codec ID : A_AC3
Duration : 1h 31mn
Bit rate mode : Constant
Bit rate : 192 Kbps
Channel(s) : 2 channels
Channel positions : Front: L R
Sampling rate : 48.0 KHz
Bit depth : 16 bits
Compression mode : Lossy
Stream size : 126 MiB (1%)
Title : MVO
Language : Russian
Default : Yes
Forced : No
Audio #2
ID : 3
Format : DTS
Format/Info : Digital Theater Systems
Format profile : MA / Core
Mode : 16
Format settings, Endianness : Big
Codec ID : A_DTS
Duration : 1h 31mn
Bit rate mode : Variable
Bit rate : Unknown / 255 Kbps
Channel(s) : 1 channel
Channel positions : Front: C
Sampling rate : 48.0 KHz
Bit depth : 24 bits
Compression mode : Lossless / Lossy
Language : Swedish
Default : No
Forced : No
Audio #3
ID : 4
Format : AC-3
Format/Info : Audio Coding 3
Mode extension : CM (complete main)
Format settings, Endianness : Big
Codec ID : A_AC3
Duration : 1h 31mn
Bit rate mode : Constant
Bit rate : 192 Kbps
Channel(s) : 1 channel
Channel positions : Front: C
Sampling rate : 48.0 KHz
Bit depth : 16 bits
Compression mode : Lossy
Stream size : 126 MiB (1%)
Language : English
Default : No
Forced : No
Text #1
ID : 5
Format : UTF-8
Codec ID : S_TEXT/UTF8
Codec ID/Info : UTF-8 Plain Text
Language : Russian
Default : No
Forced : No
Text #2
ID : 6
Format : UTF-8
Codec ID : S_TEXT/UTF8
Codec ID/Info : UTF-8 Plain Text
Language : English
Default : No
Forced : No
Menu
00:00:00.000 : en:00:00:00.000
00:03:30.293 : en:00:03:30.293
00:10:18.993 : en:00:10:18.993
00:13:00.279 : en:00:13:00.279
00:16:40.374 : en:00:16:40.374
00:21:40.674 : en:00:21:40.674
00:28:14.568 : en:00:28:14.568
00:32:12.055 : en:00:32:12.055
00:38:57.544 : en:00:38:57.544
00:47:46.739 : en:00:47:46.739
00:52:35.277 : en:00:52:35.277
00:56:57.706 : en:00:56:57.706
01:02:15.815 : en:01:02:15.815
01:07:46.771 : en:01:07:46.771
01:14:50.861 : en:01:14:50.861
01:18:30.539 : en:01:18:30.539
01:24:54.131 : en:01:24:54.131
01:29:11.763 : en:01:29:11.763

Скриншоты


Цитата:
  • Релиз . Спасибо dsk71!
  • Оригинальная дорожка получена из исходной PCM.
  • Сохранены оригинальные чаптеры как на Blu-ray.



Показать сообщения:    

Текущее время: 10-Дек 23:33

Часовой пояс: UTC + 3


Вы не можете начинать темы
Вы не можете отвечать на сообщения
Вы не можете редактировать свои сообщения
Вы не можете удалять свои сообщения
Вы не можете голосовать в опросах
Вы не можете прикреплять файлы к сообщениям
Вы не можете скачивать файлы