(Classical) Johann Christian Bach, Boccherini - Cello Concertos - Yuli Turovsky (Туровский), I Musici de Montreal - 1986, FLAC (image+.cue) lossless


Статистика раздачи [Обновить пиров]
Размер:  232 MB   |    Зарегистрирован:  8 месяцев 17 дней   |    Скачан:  1 раз

Полного источника не было: 3 месяца 20 дней

 
   
 
 
 

[Цитировать]

Johann Christian Bach, Boccherini - Cello Concertos - Yuli Turovsky, I Musici de Montreal
Жанр: Classical
Страна-производитель диска: UK
Год издания диска: 1986
Издатель (лейбл): Chandos Records
Номер по каталогу: CHAN 8470
Дата записи: 1985
Аудиокодек: FLAC
Тип рипа: image+.cue
Битрейт аудио: lossless
Продолжительность: 50:24
Источник: собственный рип
Наличие сканов в содержимом раздачи: да
Треклист:
Johann Christian Bach
[1]-[3] Concerto in C minor for Cello and Orchestra
[4]-[5] Sinfonia Concertante in A major for Violin, Cello and Orchestra
Eleonora Turovsky violin
Luigi Boccherini
[6]-[8] Concerto in B flat major for Cello and Strings, G.482
Исполнители:
I Musici de Montreal
Yuli Turovsky
cello & conductor

Лог создания рипа

Exact Audio Copy V1.0 beta 3 from 29. August 2011
EAC extraction logfile from 1. June 2015, 23:06
Yuli Turovsky, I Musici de Montreal / J.C.Bach, Boccherini - Cello Concertos
Used drive : HL-DT-STDVDRAM GU70N Adapter: 0 ID: 0
Read mode : Secure
Utilize accurate stream : Yes
Defeat audio cache : Yes
Make use of C2 pointers : No
Read offset correction : 48
Overread into Lead-In and Lead-Out : No
Fill up missing offset samples with silence : Yes
Delete leading and trailing silent blocks : No
Null samples used in CRC calculations : Yes
Used interface : Native Win32 interface for Win NT & 2000
Used output format : User Defined Encoder
Selected bitrate : 128 kBit/s
Quality : High
Add ID3 tag : No
Command line compressor : C:\Program Files (x86)\Exact Audio Copy\Flac\flac.exe
Additional command line options : -V -8 -T "Date=%year%" -T "Genre=%genre%" %source%
TOC of the extracted CD
Track | Start | Length | Start sector | End sector
---------------------------------------------------------
1 | 0:00.00 | 4:09.00 | 0 | 18674
2 | 4:09.00 | 7:07.00 | 18675 | 50699
3 | 11:16.00 | 2:53.00 | 50700 | 63674
4 | 14:09.00 | 8:55.00 | 63675 | 103799
5 | 23:04.00 | 5:35.00 | 103800 | 128924
6 | 28:39.00 | 9:08.00 | 128925 | 170024
7 | 37:47.00 | 6:36.00 | 170025 | 199724
8 | 44:23.00 | 6:01.30 | 199725 | 226829
Range status and errors
Selected range
Filename C:\temp\CHAN_08470 - J.C.Bach, Boccherini - Cello Concertos\J.C.Bach, Boccherini - Cello Concertos.wav
Peak level 94.8 %
Extraction speed 4.9 X
Range quality 100.0 %
Test CRC 20DE179C
Copy CRC 20DE179C
Copy OK
No errors occurred
AccurateRip summary
Track 1 cannot be verified as accurate (confidence 3) [6FE04BE6], AccurateRip returned [DC04D604] (AR v2)
Track 2 cannot be verified as accurate (confidence 3) [2D84C0A4], AccurateRip returned [2ABA16DA] (AR v2)
Track 3 cannot be verified as accurate (confidence 3) [42DDA53A], AccurateRip returned [AB56B572] (AR v2)
Track 4 cannot be verified as accurate (confidence 3) [8020A7BD], AccurateRip returned [5B5C32FA] (AR v2)
Track 5 cannot be verified as accurate (confidence 3) [AA9A68AB], AccurateRip returned [ED844A2B] (AR v2)
Track 6 cannot be verified as accurate (confidence 3) [A374B9E5], AccurateRip returned [B84C82D0] (AR v2)
Track 7 cannot be verified as accurate (confidence 3) [85F210A1], AccurateRip returned [AE95D81A] (AR v2)
Track 8 cannot be verified as accurate (confidence 3) [29B5A17D], AccurateRip returned [F974DC6A] (AR v2)
No tracks could be verified as accurate
You may have a different pressing from the one(s) in the database
End of status report
==== Log checksum 8621DFAB33CB0A4A886ECBF1CF0A30CFC134770F3D1153123C50C01869C74E94 ====
[teatrix.ru].t22938.torrent 
Торрент: Зарегистрирован [ 2016-03-21 00:35 ] · EFD69B23D15B34F134020E90F9DC5D760A804BBD

Скачать .torrent

Скачать

38 KB

Статус: проверено
Скачан: 1 раз
Размер: 232 MB
terms.php



Быстрый ответ

Имя:

      
Для отправки сообщений необходимо включить JavaScript
Показать сообщения:    

Текущее время: 07-Дек 11:36

Часовой пояс: UTC + 3


Вы можете начинать темы
Вы можете отвечать на сообщения
Вы не можете редактировать свои сообщения
Вы не можете удалять свои сообщения
Вы не можете голосовать в опросах
Вы не можете прикреплять файлы к сообщениям
Вы можете скачивать файлы