La Folle Journee (Johann Sebastian Bach - Violinkonzert; Edvard Grieg - Piano Concerto) Serge Zimmermann, Борис Березовский / Boris Berezovsky, Sinfonia Varsovia, Александр Сладковский / Alexander Sladkovsky [2015, Classical / Orchestral, HDTV 720p]


 

[Цитировать]

La Folle Journée
Johann Sebastian Bach - Violinkonzert BWV 1042
Edvard Grieg - Klavierkonzert op. 16

Serge Zimmermann • Boris Berezovsky
Sinfonia Varsovia • Alexander Sladkovsky

-
Год выпуска: 2015
Лейбл: KM - ARTE France
Жанр: Classical / Orchestral
Продолжительность: 00:49:17
Режиссер: Miguel Octave
Исполнители:
Serge Zimmermann - violine
Борис Березовский / Boris Berezovsky - klavier
Sinfonia Varsovia
Александр Сладковский / Alexander Sladkovsky - musikalische leitung
Треклист:
Johann Sebastian Bach - Violinkonzert BWV 1042
Edvard Grieg - Klavierkonzert op. 16
Доп. информация:
La Cité des congrès de Nantes
Folle Journée de Nantes 2015 arte.tv
Alexander Sladkovsky fr.medici.tv
Александр Сладковский материал из Википедии - свободной энциклопедии
Boris Berezovsky from Wikipedia, the free encyclopedia
Качество видео: HDTV 720p
Контейнер: TS
Видео кодек: H.264
Аудио кодек: AC3
Видео поток: 7 678 Kbps, 1280*720 (16:9), at 50.000 fps, AVC (High@L4.0) (CABAC / 4 Ref Frames)
Аудио поток: German, 192 Kbps, 48.0 KHz, 2 channels, MPEG Audio (Version 1) (Layer 2)
Аудио 2: French, 192 Kbps, 48.0 KHz, 2 channels, MPEG Audio (Version 1) (Layer 2)
Аудио 3: Multiple languages, 448 Kbps, 48.0 KHz, 16 bits, 6 channels, AC-3
Аудио 4: 192 Kbps, 48.0 KHz, 2 channels, MPEG Audio (Version 1) (Layer 2)
Источник: Digital Satellite > SkyStar HD2 (TechniSat) > raw data to HDD > Cypheros TS-Doctor > Smart Cutter (cut) > ts

MediaInfo

General
ID : 8900 (0x22C4)
Complete name : C:\rutracker.org_HD\arte HD_La Folle Journee (Alexander Sladkovsky) 2015.ts
Format : MPEG-TS
File size : 3.16 GiB
Duration : 49mn 18s
Overall bit rate mode : Variable
Overall bit rate : 9 165 Kbps
Video
ID : 5111 (0x13F7)
Menu ID : 10302 (0x283E)
Format : AVC
Format/Info : Advanced Video Codec
Format profile : High@L4.0
Format settings, CABAC : Yes
Format settings, ReFrames : 4 frames
Codec ID : 27
Duration : 49mn 18s
Bit rate : 7 678 Kbps
Width : 1 280 pixels
Height : 720 pixels
Display aspect ratio : 16:9
Frame rate : 50.000 fps
Color space : YUV
Chroma subsampling : 4:2:0
Bit depth : 8 bits
Scan type : Progressive
Bits/(Pixel*Frame) : 0.167
Stream size : 2.64 GiB (84%)
Audio #1
ID : 5112 (0x13F8)
Menu ID : 10302 (0x283E)
Format : MPEG Audio
Format version : Version 1
Format profile : Layer 2
Codec ID : 3
Duration : 49mn 17s
Bit rate mode : Constant
Bit rate : 192 Kbps
Channel(s) : 2 channels
Sampling rate : 48.0 KHz
Compression mode : Lossy
Delay relative to video : -21ms
Stream size : 67.7 MiB (2%)
Language : German
Audio #2
ID : 5113 (0x13F9)
Menu ID : 10302 (0x283E)
Format : MPEG Audio
Format version : Version 1
Format profile : Layer 2
Codec ID : 3
Duration : 49mn 17s
Bit rate mode : Constant
Bit rate : 192 Kbps
Channel(s) : 2 channels
Sampling rate : 48.0 KHz
Compression mode : Lossy
Delay relative to video : -21ms
Stream size : 67.7 MiB (2%)
Language : French
Audio #3
ID : 5116 (0x13FC)
Menu ID : 10302 (0x283E)
Format : AC-3
Format/Info : Audio Coding 3
Mode extension : CM (complete main)
Format settings, Endianness : Big
Codec ID : 6
Duration : 49mn 17s
Bit rate mode : Constant
Bit rate : 448 Kbps
Channel(s) : 6 channels
Channel positions : Front: L C R, Side: L R, LFE
Sampling rate : 48.0 KHz
Bit depth : 16 bits
Compression mode : Lossy
Delay relative to video : -11ms
Stream size : 158 MiB (5%)
Language : Multiple languages
Audio #4
ID : 5117 (0x13FD)
Menu ID : 10302 (0x283E)
Format : MPEG Audio
Format version : Version 1
Format profile : Layer 2
Codec ID : 3
Duration : 49mn 17s
Bit rate mode : Constant
Bit rate : 192 Kbps
Channel(s) : 2 channels
Sampling rate : 48.0 KHz
Compression mode : Lossy
Delay relative to video : -11ms
Stream size : 67.7 MiB (2%)



Показать сообщения:    

Текущее время: 08-Дек 11:00

Часовой пояс: UTC + 3


Вы не можете начинать темы
Вы не можете отвечать на сообщения
Вы не можете редактировать свои сообщения
Вы не можете удалять свои сообщения
Вы не можете голосовать в опросах
Вы не можете прикреплять файлы к сообщениям
Вы не можете скачивать файлы