Ноев ковчег (Александр Белинский) [1967 г., комедия, телеспектакль, SATRip]


 

[Цитировать]

Ноев ковчег Год выпуска: 1967.
Жанр: комедия, телеспектакль.
Продолжительность: 00:44:44.
Режиссер: Александр Белинский.
Действующие лица и исполнители:
От автора - Сергей Юрский,
Создатель - заслуженный артист РСФСР Виктор Чекмарев,
Архангел - Григорий Буймистр,
Дьявол - заслуженный артист РСФСР Игорь Дмитриев,
Ной - Сергей Боярский,
Дина - заслуженная артистка РСФСР Лидия Штыкан,
Сим - Георгий Штиль,
Валла - Виктория Аскенадзе,
Хам - Вячеслав Ларкин,
Ия - Инна Варшавская,
Иафет - Ирина Соколова,
Рита - Наталья Бродская,
Ханна - Татьяна Иванова,
Ханаан - Олег Козлов.
О спектакле:
По одноименной пьесе Исидора Штока.
Автор назвал это произведение доисторической документальной драмой, а зритель - признал это комедией. Исидор Шток написал "Ноев ковчег", как продолжение своей "Божественной комедии". В этом спектакле сохранена добродушная интонация. Временами она переходит в сатиру, за счет большого ряда аналогий с современностью.

Дополнительная информация:
Страна: СССР .
Выпущено: Ленинградское телевидение.
Автор: Исидор Шток.
Операторы: Андрей Гусак, Владимир Дидин.
Художник: Сергей Скинтеев.
Релиз

Качество видео:...SATRip
Формат:.................AVI
Видео:..720x544 (1.32:1), 25 fps, XviD MPEG-4 ~2039 kbps avg, 0.21 bit/pixel
Аудио:..44.100 kHz, MPEG Layer 3, 2 ch, ~128.00 kbps avg

Отчет Media Info

General
Complete name : Noev.kovcheg.1967.XviD.SATRip.fenixclub.avi
Format : AVI
Format/Info : Audio Video Interleave
File size : 697 MiB
Duration : 44mn 44s
Overall bit rate : 2 178 Kbps
Writing application : VirtualDubModRus 1.5.10.2 (build 2542/release)
Writing library : VirtualDub build 32842/release
Video
ID : 0
Format : MPEG-4 Visual
Format profile : Advanced Simple@L5
Format settings, BVOP : 2
Format settings, QPel : No
Format settings, GMC : No warppoints
Format settings, Matrix : Default (H.263)
Codec ID : XVID
Codec ID/Hint : XviD
Duration : 44mn 44s
Bit rate : 2 040 Kbps
Width : 720 pixels
Height : 544 pixels
Display aspect ratio : 4:3
Frame rate : 25.000 fps
Color space : YUV
Chroma subsampling : 4:2:0
Bit depth : 8 bits
Scan type : Progressive
Compression mode : Lossy
Bits/(Pixel*Frame) : 0.208
Stream size : 653 MiB (94%)
Writing library : XviD 73
Audio
ID : 1
Format : MPEG Audio
Format version : Version 1
Format profile : Layer 3
Mode : Joint stereo
Mode extension : MS Stereo
Codec ID : 55
Codec ID/Hint : MP3
Duration : 44mn 44s
Bit rate mode : Constant
Bit rate : 128 Kbps
Channel(s) : 2 channels
Sampling rate : 44.1 KHz
Compression mode : Lossy
Stream size : 41.0 MiB (6%)
Alignment : Split accross interleaves
Interleave, duration : 40 ms (1.00 video frame)
Interleave, preload duratio : 500 ms
Writing library : LAME3.98.2

Скриншоты


Альтернативный хост





Показать сообщения:    

Текущее время: 10-Дек 17:43

Часовой пояс: UTC + 3


Вы не можете начинать темы
Вы не можете отвечать на сообщения
Вы не можете редактировать свои сообщения
Вы не можете удалять свои сообщения
Вы не можете голосовать в опросах
Вы не можете прикреплять файлы к сообщениям
Вы не можете скачивать файлы