Разврат змеи / Розпуста змії (Ирина Пастущак) [2014 г., Украина, интимная рапсодия без слов, TVRip] Киевский академический Молодой театр


 

[Цитировать]

Разврат змеи / Розпуста змії Название театра: Киевский академический Молодой театр.
Год выпуска: 2014.
Страна: Украина .
Жанр: интимная рапсодия без слов.
Продолжительность: 01:09:32.
Режиссеры: Ирина Пастущак, Борис Квашнев.
Действующие лица и исполнители:
Тойоо Оя, Хокай - Сергей Пономаренко,
Томиико Оя, Мароя - Татьяна Луценко,
Кацуки - Дарья Мельник.
О спектакле:
О, как ненадежны супружеские связи, как недолговечна роса на острие бамбука. Поддаться искушению может каждый, даже Конфуций, забыв долг и самого себя, разгневал потусторонний мир, отдавшись страсти. "Когда-то меня полюбила служанка с острова Цукуси. С тех пор остался один - служит изголовьем мне одежда ее рукава" - Рубоко Шо.
Дополнительная информация:
Выпущено: Киевский академический Молодой театр, ГТРК "Культура".
Автор: Акинари Уеда.
Перевод Рахима Зея и Аркадия Стругацкого.
Сценография и костюмы: Борис Орлов.
Режиссер телеверсии: Борис Квашнев.
Операторы: Александр Скударь, Александр Ящиковский, Владислав Риков.

О спектакле.
Релиз
Рип sharky.

Качество видео:...TVRip
Формат:.................AVI
Видео:..704x528 (1.33:1), 25 fps, XviD build 47 ~2039 kbps avg, 0.22 bit/pixel
Аудио:..48 kHz, AC3 Dolby Digital, 2/0 (L,R) ch, ~192 kbps

Отчет Media Info

General
Complete name : Razvrat.zmei_Kievskij.AMT.2014.XviD.TVRip.fenixclub.avi
Format : AVI
Format/Info : Audio Video Interleave
File size : 1.09 GiB
Duration : 1h 9mn
Overall bit rate : 2 242 Kbps
Writing application : VirtualDubMod 1.5.10.2 (build 2542/release)
Writing library : VirtualDubMod build 2542/release
Video
ID : 0
Format : MPEG-4 Visual
Format profile : Advanced Simple@L5
Format settings, BVOP : 1
Format settings, QPel : No
Format settings, GMC : No warppoints
Format settings, Matrix : Default (H.263)
Codec ID : XVID
Codec ID/Hint : XviD
Duration : 1h 9mn
Bit rate : 2 040 Kbps
Width : 704 pixels
Height : 528 pixels
Display aspect ratio : 4:3
Frame rate : 25.000 fps
Color space : YUV
Chroma subsampling : 4:2:0
Bit depth : 8 bits
Scan type : Progressive
Compression mode : Lossy
Bits/(Pixel*Frame) : 0.220
Stream size : 1 015 MiB (91%)
Writing library : XviD 1.2.0.dev47 (UTC 2006-11-01)
Audio
ID : 1
Format : AC-3
Format/Info : Audio Coding 3
Mode extension : CM (complete main)
Format settings, Endianness : Big
Codec ID : 2000
Duration : 1h 9mn
Bit rate mode : Constant
Bit rate : 192 Kbps
Channel(s) : 2 channels
Channel positions : Front: L R
Sampling rate : 48.0 KHz
Compression mode : Lossy
Stream size : 95.5 MiB (9%)
Alignment : Split accross interleaves
Interleave, duration : 40 ms (1.00 video frame)
Interleave, preload duratio : 500 ms.

Скриншоты


Альтернативный хост





Показать сообщения:    

Текущее время: 06-Дек 22:56

Часовой пояс: UTC + 3


Вы не можете начинать темы
Вы не можете отвечать на сообщения
Вы не можете редактировать свои сообщения
Вы не можете удалять свои сообщения
Вы не можете голосовать в опросах
Вы не можете прикреплять файлы к сообщениям
Вы не можете скачивать файлы