Тени и туман / Shadows and Fog (Вуди Аллен / Woody Allen) [1991, США, комедия, детектив, драма, BDRemux 1080p] DVO (MGM) + AVO (Александр Марченко) + Sub Rus, Eng + Original Eng


 

[Цитировать]

-Тени и туман / Shadows and Fog-Страна: США
Жанр: Комедия, Детектив, Драма
Год выпуска: 1991
Продолжительность: 01:25:39
Перевод: Профессиональный (двухголосый закадровый) MGM
Перевод 2: Авторский (одноголосый закадровый) Александр Марченко
Cубтитры: русские, англиские
Оригинальная аудиодорожка: английский-Режиссер: Вуди Аллен / Woody Allen
В ролях: Вуди Аллен, Миа Фэрроу, Джон Малкович, Мадонна, Дэвид Огден Стирс, Джон Кьюсак, Джоди Фостер, Майкл Кирби, Уильям Х. Мэйси, Джон Си Райли, Джеймс Ребхорн, Виктор Арго, Даниэль вон Барген, Камилла Савиола, Тим Лумис, Кэти Дирлам, Деннис Вестунис, Дональд Плизенс-Описание: Город поглощен страхом – серийный убийца до сих пор не пойман. Мелкий служащий присоединяется к поискам преступника, и, в конце концов, сам оказывается в роли преследуемого. Везде господствует туман и мгла. Аллен использует поворотную камеру и частую смену кадров, заставляя зрителя внимательнее следить за происходящим. Музыка Курта Уилла усиливает чувство тревоги. Фильм превосходный, хотя как комедия он слабоват. Звездный состав картины не спасает положения. Как всегда хорош Джон Малкович. Многими любимая Мадонна так же сыграла в картине небольшую роль артистки цирка. На нее произвел сильное впечатление режиссерский стиль Аллена. "Я никогда не научусь терпению, - сказала она. - Но, наблюдая за Вуди, я поняла, как работают настоящие мастера. Он умеет в истинно мягкой манере заставить актера проявить все свои способности. Он не деспот, и это для меня поучительный пример”.-Сэмпл: https://yadi.sk/i/clX-9TUkoi7ax-Тип релиза: BDRemux 1080p
Контейнер: MKV
Видео: MPEG-4 AVC Video 29998 kbps 1080p / 23.976 fps / 16:9 / High Profile 4.1
Аудио: Dolby Digital Audio Russian 2.0 / 48 kHz / 192 kbps
Аудио 2: Dolby Digital Audio Russian 2.0 / 48 kHz / 192 kbps
Аудио 3: DTS-HD Master Audio English 1.0 / 48 kHz / 1071 kbps / 24-bit (DTS Core: 1.0 / 48 kHz / 768 kbps / 24-bit)
Аудио 4: DTS-HD Master Audio Music 2.0 / 48 kHz / 1685 kbps / 24-bit (DTS Core: 2.0 / 48 kHz / 1509 kbps / 24-bit)
Формат субтитров: softsub (SRT)

MI

General
Unique ID : 206826222181935591947936526793439389108 (0x9B99480DA98215429EB46DC7D6E325B4)
Complete name : V:\Фильмы\Вуди Аллен\Тени и туман (1991. Shadows and Fog).mkv
Format : Matroska
Format version : Version 2
File size : 19.8 GiB
Duration : 1h 26mn
Overall bit rate mode : Variable
Overall bit rate : 32.9 Mbps
Movie name : Release for RuTracker
Encoded date : UTC 2016-02-11 20:34:57
Writing application : mkvmerge v4.9.1 ('Ich will') сборка от Jul 11 2011 23:53:15
Writing library : libebml v1.2.1 + libmatroska v1.1.1
Video
ID : 1
Format : AVC
Format/Info : Advanced Video Codec
Format profile : High@L4.1
Format settings, CABAC : Yes
Format settings, ReFrames : 4 frames
Codec ID : V_MPEG4/ISO/AVC
Duration : 1h 26mn
Bit rate mode : Variable
Maximum bit rate : 35.0 Mbps
Width : 1 920 pixels
Height : 1 080 pixels
Display aspect ratio : 16:9
Frame rate mode : Constant
Frame rate : 23.976 fps
Color space : YUV
Chroma subsampling : 4:2:0
Bit depth : 8 bits
Scan type : Progressive
Language : English
Default : Yes
Forced : No
Audio #1
ID : 2
Format : AC-3
Format/Info : Audio Coding 3
Mode extension : CM (complete main)
Format settings, Endianness : Big
Codec ID : A_AC3
Duration : 1h 26mn
Bit rate mode : Constant
Bit rate : 192 Kbps
Channel(s) : 2 channels
Channel positions : Front: L R
Sampling rate : 48.0 KHz
Bit depth : 16 bits
Compression mode : Lossy
Stream size : 118 MiB (1%)
Title : DVO [MGM]
Language : Russian
Default : Yes
Forced : No
Audio #2
ID : 3
Format : AC-3
Format/Info : Audio Coding 3
Mode extension : CM (complete main)
Format settings, Endianness : Big
Codec ID : A_AC3
Duration : 1h 26mn
Bit rate mode : Constant
Bit rate : 192 Kbps
Channel(s) : 2 channels
Channel positions : Front: L R
Sampling rate : 48.0 KHz
Bit depth : 16 bits
Compression mode : Lossy
Stream size : 118 MiB (1%)
Title : Александр Марченко
Language : Russian
Default : No
Forced : No
Audio #3
ID : 4
Format : DTS
Format/Info : Digital Theater Systems
Format profile : MA / Core
Mode : 16
Format settings, Endianness : Big
Codec ID : A_DTS
Duration : 1h 26mn
Bit rate mode : Variable
Bit rate : Unknown / 768 Kbps
Channel(s) : 1 channel
Channel positions : Front: C
Sampling rate : 48.0 KHz
Bit depth : 24 bits
Compression mode : Lossless / Lossy
Language : English
Default : No
Forced : No
Audio #4
ID : 5
Format : DTS
Format/Info : Digital Theater Systems
Format profile : MA / Core
Mode : 16
Format settings, Endianness : Big
Codec ID : A_DTS
Duration : 1h 26mn
Bit rate mode : Variable
Bit rate : Unknown / 1 509 Kbps
Channel(s) : 2 channels
Channel positions : Front: L R
Sampling rate : 48.0 KHz
Bit depth : 24 bits
Compression mode : Lossless / Lossy
Title : Music
Language : English
Default : No
Forced : No
Text #1
ID : 6
Format : UTF-8
Codec ID : S_TEXT/UTF8
Codec ID/Info : UTF-8 Plain Text
Language : Russian
Default : No
Forced : No
Text #2
ID : 7
Format : UTF-8
Codec ID : S_TEXT/UTF8
Codec ID/Info : UTF-8 Plain Text
Language : English
Default : No
Forced : No
Text #3
ID : 8
Format : UTF-8
Codec ID : S_TEXT/UTF8
Codec ID/Info : UTF-8 Plain Text
Title : SDH
Language : English
Default : No
Forced : No
Menu
00:00:00.000 : en:00:00:00.000
00:03:07.187 : en:00:03:07.187
00:06:55.498 : en:00:06:55.498
00:10:27.210 : en:00:10:27.210
00:14:03.342 : en:00:14:03.342
00:16:56.432 : en:00:16:56.432
00:20:05.204 : en:00:20:05.204
00:24:26.757 : en:00:24:26.757
00:27:04.623 : en:00:27:04.623
00:31:16.750 : en:00:31:16.750
00:35:09.274 : en:00:35:09.274
00:39:06.135 : en:00:39:06.135
00:41:15.890 : en:00:41:15.890
00:45:19.175 : en:00:45:19.175
00:48:16.018 : en:00:48:16.018
00:52:18.135 : en:00:52:18.135
00:57:59.142 : en:00:57:59.142
01:01:02.450 : en:01:01:02.450
01:02:34.960 : en:01:02:34.960
01:06:13.469 : en:01:06:13.469
01:10:28.433 : en:01:10:28.433
01:13:00.376 : en:01:13:00.376
01:17:00.407 : en:01:17:00.407
01:22:29.319 : en:01:22:29.319

Скриншоты





Показать сообщения:    

Текущее время: 19-Янв 22:17

Часовой пояс: UTC + 3


Вы не можете начинать темы
Вы не можете отвечать на сообщения
Вы не можете редактировать свои сообщения
Вы не можете удалять свои сообщения
Вы не можете голосовать в опросах
Вы не можете прикреплять файлы к сообщениям
Вы не можете скачивать файлы