[TR24][SM][OF] Ludwig van Beethoven - Symphonies Nos. 1, 8 - Josef Krips, London Symphony Orchestra - 1961 (Classical)


Статистика раздачи [Обновить пиров]
Размер:  1.82 GB   |    Зарегистрирован:  8 месяцев 20 дней   |    Скачан:  0 раз

Полного источника не было: Никогда

 
   
 
 
 

[Цитировать]

·
·

Ludwig van Beethoven
(1770―1827)
Жанр: Symphony
Носитель: Official Digital Download
Год издания диска: Ⓟ 1961 Everest Records
Год переиздания диска: © 2013 Countdown Media GmbH
Номер по каталогу: SDBR 3089
Продолжительность: 53:09
Наличие сканов в содержимом раздачи: artwork
Контейнер: FLAC (*.flac)
Разрядность: 24/192
Количество каналов: 2.0
Формат: tracks
Источник: HDtracks
Pелизер: WEB (thanks to the original customer)
Josef Krips
London Symphony Orchestra

Треклист

Symphony No. 1 in C Major Op. 21
01 I. Adagio molto – Allegro con brio 09:18
02 II. Andante cantabile con moto 06:27
03 III. Menuetto: Allegro molto e vivace 03:54
04 IV. Finale: Adagio – Allegro molto e vivace 06:21

Symphony No. 8 in F Major Op. 93
05 I. Allegro vivace e con brio 09:55
06 II. Allegretto scherzando 04:18
07 III. Tempo di Menuetto 05:25
08 IV. Allegro vivace 07:31

Dynamic Range Meter

foobar2000 1.2.6 / Dynamic Range Meter 1.1.1
log date: 2016-02-12 20:26:52
--------------------------------------------------------------------------------
Analyzed: London Symphony Orchestra, Josef Krips / Beethoven: Symphonies Nos. 1 & 8
--------------------------------------------------------------------------------
DR Peak RMS Duration Track
--------------------------------------------------------------------------------
DR14 -3.26 dB -22.23 dB 9:18 01-Symphony No. 1 in C Major, Op. 21 - I. Adagio molto – Allegro con brio
DR14 -5.99 dB -25.29 dB 6:27 02-Symphony No. 1 in C Major, Op. 21 - II. Andante cantabile con moto
DR12 -3.26 dB -20.63 dB 3:54 03-Symphony No. 1 in C Major, Op. 21 - III. Menuetto: Allegro molto e vivace
DR13 -1.93 dB -19.95 dB 6:21 04-Symphony No. 1 in C Major, Op. 21 - IV. Finale: Adagio – Allegro molto e vivace
DR12 -2.12 dB -18.87 dB 9:55 05-Symphony No. 8 in F Major, Op. 93 - I. Allegro vivace e con brio
DR14 -5.88 dB -26.32 dB 4:18 06-Symphony No. 8 in F Major, Op. 93 - II. Allegretto scherzando
DR13 -4.15 dB -21.22 dB 5:25 07-Symphony No. 8 in F Major, Op. 93 - III. Tempo di Menuetto
DR13 -0.86 dB -19.86 dB 7:31 08-Symphony No. 8 in F Major, Op. 93 - IV. Allegro vivace
--------------------------------------------------------------------------------
Number of tracks: 8
Official DR value: DR13
Samplerate: 192000 Hz
Channels: 2
Bits per sample: 24
Bitrate: 4942 kbps
Codec: FLAC
================================================================================
[teatrix.ru].t22943.torrent 
Торрент: Зарегистрирован [ 2016-03-21 00:35 ] · BB4F4E7EBFCAA49EDB793DE1851C6FE8036465A8

Скачать .torrent

Скачать

20 KB

Статус: проверено
Скачан: 0 раз
Размер: 1.82 GB
terms.php



Быстрый ответ

Имя:

      
Для отправки сообщений необходимо включить JavaScript
Показать сообщения:    

Текущее время: 10-Дек 04:13

Часовой пояс: UTC + 3


Вы можете начинать темы
Вы можете отвечать на сообщения
Вы не можете редактировать свои сообщения
Вы не можете удалять свои сообщения
Вы не можете голосовать в опросах
Вы не можете прикреплять файлы к сообщениям
Вы можете скачивать файлы