[TR24][SM][OF] Ludwig van Beethoven - Symphony No. 3 in E-flat Major Op. 55 "Eroica" - Josef Krips, London Symphony Orchestra - 1961 (Classical)


Статистика раздачи [Обновить пиров]
Размер:  1.44 GB   |    Зарегистрирован:  8 месяцев 20 дней   |    Скачан:  1 раз

Полного источника не было: 3 месяца 23 дня

 
   
 
 
 

[Цитировать]

·
·

Ludwig van Beethoven
(1770―1827)
Жанр: Symphony
Носитель: Official Digital Download
Год издания диска: Ⓟ 1961 Everest Records
Год переиздания диска: © 2013 Countdown Media GmbH
Номер по каталогу: SDBR 3087
Продолжительность: 44:57
Наличие сканов в содержимом раздачи: artwork
Контейнер: FLAC (*.flac)
Разрядность: 24/192
Количество каналов: 2.0
Формат: tracks
Источник: HDtracks
Pелизер: WEB (thanks to the original customer)
Josef Krips
London Symphony Orchestra

Треклист

Symphony No. 3 in E-Flat Major Op. 55 „Eroica“
01 I. Allegro con brio 14:50
02 II. Marcia funebre: Adagio assai 12:49
03 III. Scherzo: Allegro vivace 05:55
04 IV. Finale: Allegro molto 11:23

Dynamic Range Meter

foobar2000 1.2.6 / Dynamic Range Meter 1.1.1
log date: 2015-10-06 18:09:36
--------------------------------------------------------------------------------
Analyzed: London Symphony Orchestra, Josef Krips / Beethoven: Symphony No. 3 in E-flat Major, Op. 55 'Eroica'
--------------------------------------------------------------------------------
DR Peak RMS Duration Track
--------------------------------------------------------------------------------
DR13 -3.58 dB -21.72 dB 14:50 01-Symphony No. 3 in E-Flat Major, Op. 55 'Eroica' - I. Allegro con brio
DR13 -1.74 dB -22.01 dB 12:49 02-Symphony No. 3 in E-Flat Major, Op. 55 'Eroica' - II. Marcia funebre: Adagio assai
DR14 -2.34 dB -23.63 dB 5:55 03-Symphony No. 3 in E-Flat Major, Op. 55 'Eroica' - III. Scherzo: Allegro vivace
DR12 -1.49 dB -18.91 dB 11:23 04-Symphony No. 3 in E-Flat Major, Op. 55 'Eroica' - IV. Finale: Allegro molto
--------------------------------------------------------------------------------
Number of tracks: 4
Official DR value: DR13
Samplerate: 192000 Hz
Channels: 2
Bits per sample: 24
Bitrate: 4677 kbps
Codec: FLAC
================================================================================
[teatrix.ru].t22944.torrent 
Торрент: Зарегистрирован [ 2016-03-21 00:35 ] · 25BEBE7F9D912C378DBC281CBE24D711BB809D07

Скачать .torrent

Скачать

15 KB

Статус: проверено
Скачан: 1 раз
Размер: 1.44 GB
terms.php



Быстрый ответ

Имя:

      
Для отправки сообщений необходимо включить JavaScript
Показать сообщения:    

Текущее время: 10-Дек 23:33

Часовой пояс: UTC + 3


Вы можете начинать темы
Вы можете отвечать на сообщения
Вы не можете редактировать свои сообщения
Вы не можете удалять свои сообщения
Вы не можете голосовать в опросах
Вы не можете прикреплять файлы к сообщениям
Вы можете скачивать файлы