(Opera) Giacomo Puccini - Tosca (Тамара Милашкина, Владимир Атлантов, Юрий Мазурок - Марк Эрмлер / Ermler 1974) WEB - 2015, FLAC (tracks) lossless


 

[Цитировать]

Giacomo Puccini - Tosca (Тамара Милашкина, Владимир Атлантов, Юрий Мазурок - Марк Эрмлер 1974)
Жанр: Opera
Страна-производитель диска: РФ
Год издания диска: 2015
Издатель (лейбл): Мелодия
Дата записи: 1974
Аудиокодек: FLAC
Тип рипа: tracks
Битрейт аудио: lossless
Продолжительность: 1 час 54 минуты
Источник: другое
сайт-источник/ник/другое: http://www.prestoclassical.co.uk/r/Melodiya/MELCD1002359
Наличие сканов в содержимом раздачи: нет

Треклист

Giacomo Puccini: Tosca, Atto I
01. "Ah! Finalmente!"
02. "E sempre lava!"
03. "Che fai?"
04. "Gente là dentro"
05. "Mario! Mario! Mario! Son qui!"
06. "È buona la mia Tosca"
07. "Sommo giubilo, Eccellenza!"
08. "Un tal baccano in chiesa!"
09. "Mario?! Mario? Il pittor Cavaradossi?"
10. "Tre sbirri, una carrozza"
Giacomo Puccini: Tosca, Atto II
11. "Tosca è un buon falco!"
12. "O galantuomo, come andò la caccia?"
13. "Tal violenza!"
14. "O bei tratti di corda!"
15. "Quanto? Quanto? Il prezzo!"
16. "Vissi d'arte, vissi d'amore"
17. "Vedi, le man giunte io stendo a te!"
Giacomo Puccini: Tosca, Atto III
18. "Io de' sospiri"
19. "Mario Cavaradossi? A voi"
20. "E lucevan le stelle"
21. "Ah! Franchigia a Floria Tosca"
22. "L'ora! Son pronto"

Исполнители

Джакомо Пуччини
«Тоска»
Oпера в трех действиях
(либретто Луиджи Иллики и Джузеппе Джакозы)
Действующие лица и исполнители:
Флория Тоска, знаменитая певица – Тамара Милашкина, сопрано
Марио Каварадосси, художник – Владимир Атлантов, тенор
Барон Скарпиа, шеф полиции Рима – Юрий Мазурок, баритон
Чезаре Анджелотти, бывший консул Римской республики – Валерий Ярославцев, бас
Ризничий – Виталий Нартов, баритон
Сполетта, полицейский – Андрей Соколов, тенор
Шарроне, жандарм – Владимир Филиппов, бас
Тюремщик – Михаил Шкапцов, бас
Пастух – Александр Павлов, альт
Кардинал, судья, Роберти (палач), писарь, офицер, сержант,
солдаты, стражники, полицейские, кавалеры, дамы, народ
Хор и оркестр Большого театра СССР
Дирижер – Марк Эрмлер
Звукорежиссер – М. Пахтер
Запись 1974 г.
Giacomo Puccini
Tosca
Opera in three acts
Libretto by Luigi Illica, Giuseppe Giacosa
Characters and performers:
Floria Tosca, a celebrated singer – Tamara Milashkina, soprano
Mario Cavaradossi, a painter – Vladimir Atlantov, tenor
Baron Scarpia, chief of police – Yuri Mazurok, baritone
Cesare Angelotti, former Consul of the Roman Republic – Valeri Yaroslavtsev, bass
Sacristan – Vitali Nartov, baritone
Spoletta, a police agent – Andrei Sokolov, tenor
Sciarrone, another agent – Vladimir Filippov, bass
A Jailer – Мikhail Shkaptsov, bass
A Shepherd boy – Alexander Pavlov, alto
Cardinal, scribe, soldiers, police agents, altar boys,
noblemen and women, townsfolk, artisans
Choir and orchestra of the Bolshoi Theatre
Conductor – Mark Ermler
Sound engineer – М. Pakhter
Recorded in 1974.

Лог проверки качества

foobar2000 1.2.2 / Замер динамического диапазона (DR) 1.1.1
Дата отчёта: 2016-02-12 19:49:56
--------------------------------------------------------------------------------
Анализ: Виталий Нартов/Оркестр Большого театра СССР/Хор Большого театра СССР / Puccini: Tosca (1)
Владимир Атлантов/Юрий Мазурок/Андрей Соколов/Оркестр Большого театра СССР/Хор Большого театра СССР / Puccini: Tosca (2)
Хор Большого театра СССР/Александр Павлов/Оркестр Большого театра СССР / Puccini: Tosca (3)
Хор Большого театра СССР/Андрей Соколов/Юрий Мазурок/Тамара Милашкина/Владимир Атлантов/Владимир Филиппов/Оркестр Большого театра СССР / Puccini: Tosca (4)
Хор Большого театра СССР/Валерий Ярославцев/Оркестр Большого театра СССР / Puccini: Tosca (5)
Хор Большого театра СССР/Виталий Нартов/Оркестр Большого театра СССР / Puccini: Tosca (6)
Хор Большого театра СССР/Владимир Атлантов/Валерий Ярославцев/Оркестр Большого театра СССР / Puccini: Tosca (7)
Хор Большого театра СССР/Владимир Атлантов/Валерий Ярославцев/Тамара Милашкина/Оркестр Большого театра СССР / Puccini: Tosca (8)
Хор Большого театра СССР/Владимир Атлантов/Виталий Нартов/Оркестр Большого театра СССР / Puccini: Tosca (9)
Хор Большого театра СССР/Владимир Атлантов/Оркестр Большого театра СССР / Puccini: Tosca (10)
Хор Большого театра СССР/Владимир Атлантов/Тамара Милашкина/Оркестр Большого театра СССР / Puccini: Tosca (11)
Хор Большого театра СССР/Михаил Шкапцов/Владимир Атлантов/Оркестр Большого театра СССР / Puccini: Tosca (12)
Хор Большого театра СССР/Михаил Шкапцов/Владимир Атлантов/Тамара Милашкина/Владимир Филиппов/Андрей Соколов/Оркестр Большого театра СССР / Puccini: Tosca (13)
Хор Большого театра СССР/Тамара Милашкина/Владимир Атлантов/Оркестр Большого театра СССР / Puccini: Tosca (14)
Хор Большого театра СССР/Тамара Милашкина/Юрий Мазурок/Андрей Соколов/Оркестр Большого театра СССР / Puccini: Tosca (15)
Хор Большого театра СССР/Тамара Милашкина/Юрий Мазурок/Виталий Нартов/Оркестр Большого театра СССР / Puccini: Tosca (16)
Хор Большого театра СССР/Тамара Милашкина/Юрий Мазурок/Оркестр Большого театра СССР / Puccini: Tosca (17-18)
Хор Большого театра СССР/Юрий Мазурок/Виталий Нартов/Андрей Соколов/Оркестр Большого театра СССР / Puccini: Tosca (19)
Хор Большого театра СССР/Юрий Мазурок/Владимир Филиппов/Оркестр Большого театра СССР / Puccini: Tosca (20)
Юрий Мазурок/Андрей Соколов/Оркестр Большого театра СССР/Хор Большого театра СССР / Puccini: Tosca (21-22)
--------------------------------------------------------------------------------
DR Пики RMS Продолжительность трека
--------------------------------------------------------------------------------
DR11 -3.64 дБ -17.97 дБ 1:29 ?-Tosca, Atto I: 'Sommo giubilo, Eccellenza!'
DR12 -3.56 дБ -18.96 дБ 2:57 ?-Tosca, Atto II: 'Tal violenza!'
DR12 -5.42 дБ -23.91 дБ 5:13 ?-Tosca, Atto III: 'Io de' sospiri'
DR11 -3.44 дБ -19.74 дБ 14:02 ?-Tosca, Atto II: 'O bei tratti di corda!'
DR10 -4.26 дБ -20.29 дБ 2:03 ?-Tosca, Atto I: 'Ah! Finalmente!'
DR13 -4.73 дБ -24.28 дБ 2:15 ?-Tosca, Atto I: 'E sempre lava!'
DR11 -4.23 дБ -19.49 дБ 3:41 ?-Tosca, Atto I: 'È buona la mia Tosca'
DR11 -4.22 дБ -18.68 дБ 1:05 ?-Tosca, Atto I: 'Gente là dentro'
DR12 -3.74 дБ -20.54 дБ 5:26 ?-Tosca, Atto I: 'Che fai?'
DR9 -2.69 дБ -16.83 дБ 3:03 ?-Tosca, Atto III: 'E lucevan le stelle'
DR10 -2.72 дБ -16.51 дБ 10:39 ?-Tosca, Atto III: 'Ah! Franchigia a Floria Tosca'
DR11 -3.41 дБ -19.24 дБ 4:07 ?-Tosca, Atto III: 'Mario Cavaradossi? A voi'
DR10 -2.07 дБ -15.98 дБ 4:09 ?-Tosca, Atto III: 'L'ora! Son pronto'
DR11 -3.30 дБ -18.64 дБ 13:52 ?-Tosca, Atto I: 'Mario! Mario! Mario! Son qui!'
DR13 -3.33 дБ -21.31 дБ 10:00 ?-Tosca, Atto II: 'Vedi, le man giunte io stendo a te!'
DR11 -3.83 дБ -18.71 дБ 7:05 ?-Tosca, Atto I: 'Mario?! Mario? Il pittor Cavaradossi?'
DR11 -3.69 дБ -18.51 дБ 4:36 ?-Tosca, Atto II: 'Quanto? Quanto? Il prezzo!'
DR10 -3.90 дБ -18.86 дБ 3:39 ?-Tosca, Atto II: 'Vissi d'arte, vissi d'amore'
DR12 -3.62 дБ -19.33 дБ 4:01 ?-Tosca, Atto I: 'Un tal baccano in chiesa!'
DR12 -3.19 дБ -21.17 дБ 4:31 ?-Tosca, Atto II: 'Tosca è un buon falco!'
DR11 -2.79 дБ -16.72 дБ 4:48 ?-Tosca, Atto I: 'Tre sbirri, una carrozza'
DR12 -3.28 дБ -20.71 дБ 1:35 ?-Tosca, Atto II: 'O galantuomo, come andò la caccia?'
--------------------------------------------------------------------------------
Количество треков: 22
Реальные значения DR: DR11
Частота: 44100 Гц
Каналов: 2
Разрядность: 16
Битрейт: 647 кбит/с
Кодек: FLAC
================================================================================
Доп. информация: Буклет в формате PDF
Эта же запись в формате LP-Rip 24/96: http://teatrix.ru/viewtopic.php?t=18167



Показать сообщения:    

Текущее время: 04-Дек 21:16

Часовой пояс: UTC + 3


Вы не можете начинать темы
Вы не можете отвечать на сообщения
Вы не можете редактировать свои сообщения
Вы не можете удалять свои сообщения
Вы не можете голосовать в опросах
Вы не можете прикреплять файлы к сообщениям
Вы не можете скачивать файлы