[SACD-R][OF] Sakari Oramo, Royal Stockholm Philharmonic Orchestra - Carl Nielsen: Symphony No. 1 in G minor, Op. 7; Symphony No.3, ‘Sinfonia espansiva’, Op.27 - 2014 (Orchestral)


Статистика раздачи [Обновить пиров]
Размер:  3.37 GB   |    Зарегистрирован:  8 месяцев 18 дней   |    Скачан:  0 раз

Полного источника не было: Никогда

 
   
 
 
 

[Цитировать]

Sakari Oramo, Royal Stockholm Philharmonic Orchestra
Carl Nielsen: Symphony No. 1 in G minor, Op. 7
Symphony No.3, ‘Sinfonia espansiva’, Op.27
- Формат записи/Источник записи: [SACD-R][OF]
Наличие водяных знаков: Нет
Год издания/переиздания диска: 2014
Жанр: Classical, Orchestral
Издатель(лейбл): BIS Records
Продолжительность: 01:12:28
Наличие сканов в содержимом раздачи: Нет-Треклист:
Carl Nielsen (1865–1931)
Symphony No.1 in G minor, Op.7 / FS16 (1891–92)
1. I. Allegro orgoglioso 9'21
2. II. Andante 7'34
3. III. Allegro comodo – Andante sostenuto – Tempo I 8'13
4. IV. Finale. Allegro con fuoco 8'38
Symphony No.3, ‘Sinfonia espansiva’, Op.27 / FS60 (1910–11)
5. I. Allegro espansivo 11'23
6. II. Andante pastorale 9'17
7. III. Allegretto un poco 6'41
8. IV. Finale. Allegro 10'10-Royal Stockholm Philharmonic Orchestra
Sakari Oramo, conductor-Контейнер: ISO (*.iso)
Тип рипа: image
Разрядность: 64(2,8 MHz/1 Bit)
Формат: DST64
Количество каналов: 5.0, 2.0
Доп. информация: BIS-2048, EAN 7318599920481
Release - Dec 2014
Recording - PCM 24/96
http://sa-cd.net/showtitle/10329
http://www.bis.se/index.php?op=album&aID=BIS-2048

DR 13/12

foobar2000 1.3.8 / Замер динамического диапазона (DR) 1.1.1
Дата отчёта: 2016-02-12 21:11:40
--------------------------------------------------------------------------------
Анализ: Royal Stockholm Philharmonic Orchestra / Sakari Oramo / Nielsen - Symphonies Nos 1 & 3
--------------------------------------------------------------------------------
DR Пики RMS Продолжительность трека
--------------------------------------------------------------------------------
DR15 -3.29 дБ -27.07 дБ 9:24 01-Symphony No. 1: I. Allegro orgoglioso
DR13 -3.49 дБ -26.37 дБ 7:35 02-II. Andante
DR13 -3.67 дБ -27.30 дБ 8:14 03-III. Allegro comodo - Andante sostenuto - Tempo I
DR15 -3.32 дБ -26.27 дБ 8:57 04-IV. Finale. Allegro con fuoco
DR13 -5.38 дБ -23.51 дБ 11:28 05-Symphony No. 3: I. Allegro espansivo
DR14 -8.73 дБ -31.47 дБ 9:24 06-II. Andante pastorale
DR12 -7.17 дБ -27.80 дБ 6:45 07-III. Allegretto un poco
DR12 -5.40 дБ -23.41 дБ 10:40 08-IV. Finale. Allegro
--------------------------------------------------------------------------------
Количество треков: 8
Реальные значения DR: DR13
Частота: 2822400 Гц / Частота PCM: 88200 Гц
Каналов: 5
Разрядность: 24
Битрейт: 14112 кбит/с
Кодек: DST64
================================================================================
--------------------------------------------------------------------------------
Анализ: Royal Stockholm Philharmonic Orchestra / Sakari Oramo / Nielsen - Symphonies Nos 1 & 3
--------------------------------------------------------------------------------
DR Пики RMS Продолжительность трека
--------------------------------------------------------------------------------
DR13 -4.52 дБ -22.80 дБ 9:24 01-Symphony No. 1: I. Allegro orgoglioso
DR12 -4.45 дБ -23.04 дБ 7:35 02-II. Andante
DR12 -4.53 дБ -23.05 дБ 8:14 03-III. Allegro comodo - Andante sostenuto - Tempo I
DR13 -4.51 дБ -21.75 дБ 8:57 04-IV. Finale. Allegro con fuoco
DR12 -4.89 дБ -20.55 дБ 11:28 05-Symphony No. 3: I. Allegro espansivo
DR12 -8.92 дБ -27.19 дБ 9:24 06-II. Andante pastorale
DR12 -5.18 дБ -23.86 дБ 6:45 07-III. Allegretto un poco
DR11 -4.91 дБ -20.67 дБ 10:40 08-IV. Finale. Allegro
--------------------------------------------------------------------------------
Количество треков: 8
Реальные значения DR: DR12
Частота: 2822400 Гц / Частота PCM: 88200 Гц
Каналов: 2
Разрядность: 24
Битрейт: 5645 кбит/с
Кодек: DST64
================================================================================
ТОРРЕНТ ПЕРЕЗАЛИТ в 13:24 (Мск).

[SACD-R][OF] Sakari Oramo, Royal Stockholm Philharmonic Orchestra - Carl Nielsen: Symphony No. 1 in G minor, Op. 7; Symphony No.3, ‘Sinfonia espansiva’, Op.27 - 2014 (Orchestral)
[SACD-R][OF]Sakari Oramo, Royal Stockholm Philharmonic Orchestra - Carl Nielsen: Symphonies 2 "De fire Temperamenter (The Four Temperaments)" & 6 "Sinfonia Semplice" - 2015
[SACD-R][OF] Sakari Oramo, Royal Stockholm Philharmonic Orchestra - Carl Nielsen: Symphony No. 1 in G minor, Op. 7; Symphony No.3, ‘Sinfonia espansiva’, Op.27 - 2014 (Orchestral)
[SACD-R][OF]Sakari Oramo, Royal Stockholm Philharmonic Orchestra - Carl Nielsen: Symphony 4 ”Det uudslukkelige” (The Inextinguishable) Op.29; Symphony 5 Op.50 - 2013
[teatrix.ru].t22946.torrent 
Торрент: Зарегистрирован [ 2016-03-21 00:35 ] · AFCC8B7EC2DA526429A877EC49902B10CC8E3714

Скачать .torrent

Скачать

35 KB

Статус: проверено
Скачан: 0 раз
Размер: 3.37 GB
terms.php



Быстрый ответ

Имя:

      
Для отправки сообщений необходимо включить JavaScript
Показать сообщения:    

Текущее время: 08-Дек 07:04

Часовой пояс: UTC + 3


Вы можете начинать темы
Вы можете отвечать на сообщения
Вы не можете редактировать свои сообщения
Вы не можете удалять свои сообщения
Вы не можете голосовать в опросах
Вы не можете прикреплять файлы к сообщениям
Вы можете скачивать файлы