(Classical) W.A. Mozart-Symphonies KV.318, 385, 425, Anh 214, 75, Saulius Sondeckis, Lithuanu - 1991, FLAC (image+.cue) lossless


 

[Цитировать]

W.A. Mozart. Symphonies KV.318, 385, 425, Anh 214, 75, 97-73m, Anh 223-19a & 128 Saulius Sondeckis & Lithuanuan Chamber Orchestra
Жанр: Classical
Страна-производитель диска: СССР
Год издания диска: 1991
Издатель (лейбл): Мелодия
Номер по каталогу: 4600317009749, 4600317009756
ASIN: B000FOPS5I
Дата записи: 1991
Аудиокодек: FLAC
Тип рипа: image+.cue
Битрейт аудио: lossless
Продолжительность: 02:06:41
Источник: demonoid
Наличие сканов в содержимом раздачи: да

CD1 - 1991 Symphonies KV.318, 385, 425

Треклист:
01. Symphony (Overture) No.32 G-Dur KV.318 Allegro spiritozo-Andante [07:58]
Symphony No.35 D-Dur KV.385 'Haffner'
02. I.Allegro con spirito [08:14]
03. 'Haffner' II.Andante [08:50]
04. 'Haffner' III.Menuetto [03:20]
05. 'Haffner' IV.Presto [04:08]
Symphony No.36 C-Dur KV.425 'Linz'
06. I.Adagio-Allegro spiritoso [10:19]
07. II.Poco Adagio [09:09]
08. III.Menuetto [03:45]
09. IV.Presto [07:40]
Прoдoлжительность: 01:03:19

CD2 - Symphonies Anh 214, 75, 97-73m, Anh 223-19a & 128

Треклист:
Symphony B-Dur KV.Anh 214/45b 'No.55'
01. I.Allegro [02:44]
02. II.Andante [05:23]
03. III.Allegro molto [01:15]
Symphony F-Dur KV.75 'No.42'
04. I.Allegro [02:59]
05. II.Minuetto [03:25]
06. III.Andantino [05:16]
07. IV.Allegro [02:37]
Symphony D-Dur KV.97/73m 'No.47'
08. I.Allegro [02:40]
09. II.Andante [03:23]
10. III.Minuetto [02:37]
11. IV.Presto [01:41]
Symphony F-Dur KV.Anh 223/19a
12. I.Allegro [05:31]
13. II.Andante [06:30]
14. III.Menuetto [02:38]
15. IV.Molto allegro [02:22]
Symphony No.16 C-Dur KV.128
16. I.Allegro maestoso [04:31]
17. II.Andantino grazioso [03:59]
18. III.Allegro (Rondeau) [03:59]
Прoдoлжительность: 01:03:21
Исполнители:
Lithuanuan Chamber Orchestra
conductor: Saulius Sondeckis

Лог создания рипа

CD1 Отчёт ЕАС:

Exact Audio Copy V1.0 beta 3 from 29. August 2011
[br]
EAC extraction logfile from 7. February 2015, 21:36
[br]
Lithuanuan Chamber Orchestra / CD1-Symphonies KV.318, 385, 425
[br]
Used drive  : TSSTcorpCDDVDW SE-208AB   Adapter: 1  ID: 0
[br]
Read mode               : Secure
Utilize accurate stream : Yes
Defeat audio cache      : Yes
Make use of C2 pointers : No
[br]
Read offset correction                      : 6
Overread into Lead-In and Lead-Out          : No
Fill up missing offset samples with silence : Yes
Delete leading and trailing silent blocks   : No
Null samples used in CRC calculations       : Yes
Used interface                              : Native Win32 interface for Win NT & 2000
[br]
Used output format              : User Defined Encoder
Selected bitrate                : 128 kBit/s
Quality                         : High
Add ID3 tag                     : No
Command line compressor         : C:\Program Files (x86)\Exact Audio Copy\Flac\flac.exe
Additional command line options : -V -8 -T "Date=%year%" -T "Genre=%genre%" %source%
[br]
TOC of the extracted CD
[br]
Track |   Start  |  Length  | Start sector | End sector
---------------------------------------------------------
1  |  0:00.00 |  7:57.63 |         0    |    35837
2  |  7:57.63 |  8:13.23 |     35838    |    72835
3  | 16:11.11 |  8:49.66 |     72836    |   112576
4  | 25:01.02 |  3:19.31 |    112577    |   127532
5  | 28:20.33 |  4:07.51 |    127533    |   146108
6  | 32:28.09 | 10:18.56 |    146109    |   192514
7  | 42:46.65 |  9:08.57 |    192515    |   233671
8  | 51:55.47 |  3:44.11 |    233672    |   250482
9  | 55:39.58 |  7:39.10 |    250483    |   284917
[br]
Range status and errors
[br]
Selected range
[br]
Filename D:\Musor\Mozart-Symphonies (Sondeckis)\CD1\CD1-Symphonies KV.318, 385, 425.wav
[br]
Peak level 81.9 %
Extraction speed 2.1 X
Range quality 100.0 %
Test CRC 3F1BA91B
Copy CRC 3F1BA91B
Copy OK
[br]
No errors occurred
[br]
AccurateRip summary
[br]
Track  1  not present in database
Track  2  not present in database
Track  3  not present in database
Track  4  not present in database
Track  5  not present in database
Track  6  not present in database
Track  7  not present in database
Track  8  not present in database
Track  9  not present in database
[br]
None of the tracks are present in the AccurateRip database
[br]
End of status report
[br]
==== Log checksum 1ECA434B44F2D3B0B2D0C11769B7D2C8CAAFC0930412E68AAEBC5E261B0D8D82 ====

CD2 Отчёт ЕАС:

Exact Audio Copy V1.0 beta 3 from 29. August 2011
[br]
EAC extraction logfile from 7. February 2015, 20:32
[br]
Lithuanuan Chamber Orchestra / CD2-Symphonies Anh 214, 75, 97-73m, Anh 223-19a & 128
[br]
Used drive  : TSSTcorpCDDVDW SE-208AB   Adapter: 1  ID: 0
[br]
Read mode               : Secure
Utilize accurate stream : Yes
Defeat audio cache      : Yes
Make use of C2 pointers : No
[br]
Read offset correction                      : 6
Overread into Lead-In and Lead-Out          : No
Fill up missing offset samples with silence : Yes
Delete leading and trailing silent blocks   : No
Null samples used in CRC calculations       : Yes
Used interface                              : Native Win32 interface for Win NT & 2000
[br]
Used output format              : User Defined Encoder
Selected bitrate                : 128 kBit/s
Quality                         : High
Add ID3 tag                     : No
Command line compressor         : C:\Program Files (x86)\Exact Audio Copy\Flac\flac.exe
Additional command line options : -V -8 -T "Date=%year%" -T "Genre=%genre%" %source%
[br]
TOC of the extracted CD
[br]
Track |   Start  |  Length  | Start sector | End sector
---------------------------------------------------------
1  |  0:00.00 |  2:43.74 |         0    |    12298
2  |  2:43.74 |  5:22.55 |     12299    |    36503
3  |  8:06.54 |  1:14.68 |     36504    |    42121
4  |  9:21.47 |  2:58.18 |     42122    |    55489
5  | 12:19.65 |  3:24.71 |     55490    |    70860
6  | 15:44.61 |  5:15.02 |     70861    |    94487
7  | 20:59.63 |  2:36.64 |     94488    |   106251
8  | 23:36.52 |  2:39.67 |    106252    |   118243
9  | 26:16.44 |  3:22.35 |    118244    |   133428
10  | 29:39.04 |  2:36.36 |    133429    |   145164
11  | 32:15.40 |  1:40.73 |    145165    |   152737
12  | 33:56.38 |  5:30.63 |    152738    |   177550
13  | 39:27.26 |  6:29.03 |    177551    |   206728
14  | 45:56.29 |  2:37.07 |    206729    |   218510
15  | 48:33.36 |  2:21.52 |    218511    |   229137
16  | 50:55.13 |  4:30.29 |    229138    |   249416
17  | 55:25.42 |  3:58.11 |    249417    |   267277
18  | 59:23.53 |  3:58.09 |    267278    |   285136
[br]
Range status and errors
[br]
Selected range
[br]
Filename D:\Musor\Mozart-Symphonies (Sondeckis)\CD2\CD2-Symphonies Anh 214, 75, 97-73m, Anh 223-19a & 128.wav
[br]
Peak level 99.4 %
Extraction speed 2.1 X
Range quality 100.0 %
Test CRC 86B09650
Copy CRC 86B09650
Copy OK
[br]
No errors occurred
[br]
AccurateRip summary
[br]
Track  1  not present in database
Track  2  not present in database
Track  3  not present in database
Track  4  not present in database
Track  5  not present in database
Track  6  not present in database
Track  7  not present in database
Track  8  not present in database
Track  9  not present in database
Track 10  not present in database
Track 11  not present in database
Track 12  not present in database
Track 13  not present in database
Track 14  not present in database
Track 15  not present in database
Track 16  not present in database
Track 17  not present in database
Track 18  not present in database
[br]
None of the tracks are present in the AccurateRip database
[br]
End of status report
[br]
==== Log checksum 6CB3D7405CD467EB59B2FF4327CA1BDA193B4F17FEE39F08462E548805E7E9A9 ====

Содержание индексной карты (.CUE)

CD1 Содержание индексной карты (*.cue):

REM DATE 1991
REM GENRE Classical
REM DISCID 770ED609
REM DISCNUMBER 1
REM TOTALDISCS 2
REM PUBLISHER Мелодия
REM PUBNUMBER 10 00974
REM COMMENT ExactAudioCopy v1.0b3
CATALOG 4600317009749
PERFORMER "Lithuanuan Chamber Orchestra"
TITLE "CD1-Symphonies KV.318, 385, 425"
FILE "CD1-Symphonies KV.318, 385, 425.flac" WAVE
TRACK 01 AUDIO
TITLE "Symphony (Overture) No.32 G-Dur KV.318 Allegro spiritozo-Andante"
PERFORMER "Saulius Sondeckis"
INDEX 01 00:00:00
TRACK 02 AUDIO
TITLE "Symphony No.35 D-Dur KV.385 'Haffner' I.Allegro con spirito"
PERFORMER "Saulius Sondeckis"
INDEX 01 07:57:63
TRACK 03 AUDIO
TITLE "Symphony No.35 D-Dur KV.385 'Haffner' II.Andante"
PERFORMER "Saulius Sondeckis"
INDEX 01 16:11:11
TRACK 04 AUDIO
TITLE "Symphony No.35 D-Dur KV.385 'Haffner' III.Menuetto"
PERFORMER "Saulius Sondeckis"
INDEX 01 25:01:02
TRACK 05 AUDIO
TITLE "Symphony No.35 D-Dur KV.385 'Haffner' IV.Presto"
PERFORMER "Saulius Sondeckis"
INDEX 01 28:20:33
TRACK 06 AUDIO
TITLE "Symphony No.36 C-Dur KV.425 'Linz' I.Adagio-Allegro spiritoso"
PERFORMER "Saulius Sondeckis"
INDEX 01 32:28:09
TRACK 07 AUDIO
TITLE "Symphony No.36 C-Dur KV.425 'Linz' II.Poco Adagio"
PERFORMER "Saulius Sondeckis"
INDEX 01 42:46:65
TRACK 08 AUDIO
TITLE "Symphony No.36 C-Dur KV.425 'Linz' III.Menuetto"
PERFORMER "Saulius Sondeckis"
INDEX 01 51:55:47
TRACK 09 AUDIO
TITLE "Symphony No.36 C-Dur KV.425 'Linz' IV.Presto"
PERFORMER "Saulius Sondeckis"
INDEX 01 55:39:58

CD2 Содержание индексной карты (*.cue):

REM DATE 1991
REM GENRE Classical
REM DISCID 1B0ED912
REM DISCNUMBER 2
REM TOTALDISCS 2
REM PUBLISHER Мелодия
REM PUBNUMBER 10 00975
REM COMMENT ExactAudioCopy v1.0b3
CATALOG 4600317009756
PERFORMER "Lithuanuan Chamber Orchestra"
TITLE "CD2-Symphonies Anh 214, 75, 97-73m, Anh 223-19a & 128"
FILE "CD2-Symphonies Anh 214, 75, 97-73m, Anh 223-19a & 128.flac" WAVE
TRACK 01 AUDIO
TITLE "Symphony B-Dur KV.Anh 214/45b 'No.55' I.Allegro"
PERFORMER "Saulius Sondeckis"
INDEX 01 00:00:00
TRACK 02 AUDIO
TITLE "Symphony B-Dur KV.Anh 214/45b 'No.55' II.Andante"
PERFORMER "Saulius Sondeckis"
INDEX 01 02:43:74
TRACK 03 AUDIO
TITLE "Symphony B-Dur KV.Anh 214/45b 'No.55' III.Allegro molto"
PERFORMER "Saulius Sondeckis"
INDEX 01 08:06:54
TRACK 04 AUDIO
TITLE "Symphony F-Dur KV.75 'No.42' I.Allegro"
PERFORMER "Saulius Sondeckis"
INDEX 01 09:21:47
TRACK 05 AUDIO
TITLE "Symphony F-Dur KV.75 'No.42' II.Minuetto"
PERFORMER "Saulius Sondeckis"
INDEX 01 12:19:65
TRACK 06 AUDIO
TITLE "Symphony F-Dur KV.75 'No.42' III.Andantino"
PERFORMER "Saulius Sondeckis"
INDEX 01 15:44:61
TRACK 07 AUDIO
TITLE "Symphony F-Dur KV.75 'No.42' IV.Allegro"
PERFORMER "Saulius Sondeckis"
INDEX 01 20:59:63
TRACK 08 AUDIO
TITLE "Symphony D-Dur KV.97/73m 'No.47' I.Allegro"
PERFORMER "Saulius Sondeckis"
INDEX 01 23:36:52
TRACK 09 AUDIO
TITLE "Symphony D-Dur KV.97/73m 'No.47' II.Andante"
PERFORMER "Saulius Sondeckis"
INDEX 01 26:16:44
TRACK 10 AUDIO
TITLE "Symphony D-Dur KV.97/73m 'No.47' III.Minuetto"
PERFORMER "Saulius Sondeckis"
INDEX 01 29:39:04
TRACK 11 AUDIO
TITLE "Symphony D-Dur KV.97/73m 'No.47' IV.Presto"
PERFORMER "Saulius Sondeckis"
INDEX 01 32:15:40
TRACK 12 AUDIO
TITLE "Symphony F-Dur KV.Anh 223/19a I.Allegro"
PERFORMER "Saulius Sondeckis"
INDEX 01 33:56:38
TRACK 13 AUDIO
TITLE "Symphony F-Dur KV.Anh 223/19a II.Andante"
PERFORMER "Saulius Sondeckis"
INDEX 01 39:27:26
TRACK 14 AUDIO
TITLE "Symphony F-Dur KV.Anh 223/19a III.Menuetto"
PERFORMER "Saulius Sondeckis"
INDEX 01 45:56:29
TRACK 15 AUDIO
TITLE "Symphony F-Dur KV.Anh 223/19a IV.Molto allegro"
PERFORMER "Saulius Sondeckis"
INDEX 01 48:33:36
TRACK 16 AUDIO
TITLE "Symphony No.16 C-Dur KV.128 I.Allegro maestoso"
PERFORMER "Saulius Sondeckis"
INDEX 01 50:55:13
TRACK 17 AUDIO
TITLE "Symphony No.16 C-Dur KV.128 II.Andantino grazioso"
PERFORMER "Saulius Sondeckis"
INDEX 01 55:25:42
TRACK 18 AUDIO
TITLE "Symphony No.16 C-Dur KV.128 III.Allegro (Rondeau)"
PERFORMER "Saulius Sondeckis"
INDEX 01 59:23:53

Лог проверки качества

CD1 Отчёт auCDtect Task manager:

-----------------------
[br]
DON'T MODIFY THIS FILE
[br]
-----------------------
[br]
PERFORMER: auCDtect Task Manager, ver. 1.6.0 RC1 build 1.6.0.1
Copyright (c) 2008-2010 y-soft. All rights reserved
http://y-soft.org
[br]
ANALYZER: auCDtect: CD records authenticity detector, version 0.8.2
Copyright (c) 2004 Oleg Berngardt. All rights reserved.
Copyright (c) 2004 Alexander Djourik. All rights reserved.
[br]
FILE: CD1-Symphonies KV.318, 385, 425.flac
Size: 284935327 Hash: 6AC91ADE029776467FE41A1B7E5202B6 Accuracy: -m0
Conclusion: CDDA 100%
Signature: 670A9479306D97A2246945A318D71EF27893100F

CD2 Отчёт auCDtect Task manager:

-----------------------
[br]
DON'T MODIFY THIS FILE
[br]
-----------------------
[br]
PERFORMER: auCDtect Task Manager, ver. 1.6.0 RC1 build 1.6.0.1
Copyright (c) 2008-2010 y-soft. All rights reserved
http://y-soft.org
[br]
ANALYZER: auCDtect: CD records authenticity detector, version 0.8.2
Copyright (c) 2004 Oleg Berngardt. All rights reserved.
Copyright (c) 2004 Alexander Djourik. All rights reserved.
[br]
FILE: CD2-Symphonies Anh 214, 75, 97-73m, Anh 223-19a & 128.flac
Size: 291767271 Hash: 2E4E61EFB9BDE1646DCA488693D5B0B1 Accuracy: -m0
Conclusion: CDDA 100%
Signature: DCE219C514BB7B0B15ADB03B9A2961BF6B8D6AE2

Скриншот спектра частотCD1 Спектрограмма:

CD2 Спектрограмма:

Дополнительная информация:Saulius Sondeckis


Саулюс Сондецкис (лит. Saulius Sondeckis; род. 11 октября 1928, Шяуляй) — литовский дирижёр. Сын политика Яцкаса Сондецкиса, бургомистра Шяуляя, и учительницы Шяуляйской гимназии. Отец скрипача Паулюса и виолончелиста Витаутаса Сондецкисов.
Окончил Вильнюсскую консерваторию (1952) по классу скрипки Александра Ливонта. В 1957—1960 гг. учился в аспирантуре в Московской консерватории, проходил также мастер-класс по дирижированию у Игоря Маркевича.
С 1952 г. преподавал скрипку в вильнюсских музыкальных школах, затем в Вильнюсской консерватории (с 1977 г. профессор). В 1956 г. возглавил оркестр учеников Школы искусств имени Чюрлёниса. В 1964 г., выступив с этим оркестром на фестивале в Бухаресте, стал первым литовским дирижёром, выехавшим на гастроли во главе собственного коллектива. В 1976 г. с оркестром школы выиграл конкурс молодёжных оркестров Герберта фон Караяна в Западном Берлине, удостоившись восторженных отзывов критики.
Основатель и бессменный руководитель Литовского камерного оркестра (1960—2004) и петербургского Оркестра Государственного Эрмитажа (с 1989 г.), с 2004 г. главный приглашённый дирижёр оркестра «Виртуозы Москвы».
Наиболее известные достижения Сондецкиса связаны с музыкой Вольфганга Амадея Моцарта — в частности, с циклом из всех клавирных концертов Моцарта (вместе с пианистом Владимиром Крайневым), исполненным в Вильнюсе, Москве и Ленинграде, и с концертной записью оперы «Дон Жуан». В то же время Сондецкис сотрудничал со многими выдающимися композиторами-современниками. Высокую оценку получила его запись 13-й симфонии Дмитрия Шостаковича. Под управлением Сондецкиса состоялись мировые премьеры произведений Альфреда Шнитке, Арво Пярта, Эдисона Денисова, Родиона Щедрина, Сергея Слонимского, Балиса Дварионаса и др. Свои произведения посвящали Сондецкису Пярт («Tabula rasa»), Шнитке («Concerto grosso» № 1 посвящено Сондецкису, Гидону Кремеру и Татьяне Гринденко, № 3 — Сондецкису и Литовскому камерному оркестру, к 25-летию коллектива), Петерис Васкс и другие.
Саулюс Сондецкис Народный артист СССР (1980), лауреат Государственной премии СССР (1987), Национальной премии Литвы (1999).
Почётный доктор Шяуляйского университета (1999), почётный гражданин Шяуляя (2000). В 2009 г. удостоен Ордена Почёта за вклад в развитие музыкального искусства и укрепление российско-литовских культурных связей.



Показать сообщения:    

Текущее время: 06-Дек 15:16

Часовой пояс: UTC + 3


Вы не можете начинать темы
Вы не можете отвечать на сообщения
Вы не можете редактировать свои сообщения
Вы не можете удалять свои сообщения
Вы не можете голосовать в опросах
Вы не можете прикреплять файлы к сообщениям
Вы не можете скачивать файлы