(Orchestral) W.A.Mozart - Symphonie Nr.38 • Klavierkonzert Nr.24 • Exsultate, jubilate (W.Kempff | H.Lukomska | SWR SO Stuttgart • Residenz Orchester Den Haag • Bruno Maderna) - 1991, FLAC (image+.cue) lossless


 

[Цитировать]

MADERNA
MOZART
--- Жанр: Orchestral
Страна-производитель диска: Italy
Год издания диска: 1991
Издатель (лейбл): Arkadia
Дата записи: 1966/67/70
Аудиокодек: FLAC
Тип рипа: image+.cue
Битрейт аудио: lossless
Продолжительность: 75'00''
Источник: собственный рип
Наличие сканов в содержимом раздачи: да
Треклист:
[01] Symphonie Nr.38: I. Adagio - Allegro
[02] II. Andante
[03] III. Presto
[04] Klavierkonzert Nr.24: I. Allegro
[05] II. Larghetto
[06] III. Allegretto
[07] Exsultate, jubilate
Исполнители:
Wilhelm Kempff - piano
Halina Lukomska - soprano
Radio-Sinfonieorchester Stuttgart des SWR [1-3]
Residenz Orchester Den Haag
Bruno Maderna
-

Лог создания рипа

Exact Audio Copy V1.1 from 23. June 2015
EAC extraction logfile from 12. February 2016, 23:14
Bruno Maderna - Wilhelm Kempff - SWRSO & Haag Residenz Orch / Maderna Conducts Mozart
Used drive : TEAC CD-W540E Adapter: 1 ID: 1
Read mode : Secure
Utilize accurate stream : Yes
Defeat audio cache : Yes
Make use of C2 pointers : No
Read offset correction : 686
Overread into Lead-In and Lead-Out : No
Fill up missing offset samples with silence : Yes
Delete leading and trailing silent blocks : No
Null samples used in CRC calculations : Yes
Used interface : Native Win32 interface for Win NT & 2000
Used output format : User Defined Encoder
Selected bitrate : 896 kBit/s
Quality : High
Add ID3 tag : No
Command line compressor : C:\Program Files\flac-1.3.1pre1-win\win64\flac.exe
Additional command line options : -T "COMMENT=rip by el coronel" -8 -V %source%
TOC of the extracted CD
Track | Start | Length | Start sector | End sector
---------------------------------------------------------
1 | 0:00.32 | 12:37.15 | 32 | 56821
2 | 12:37.47 | 10:32.48 | 56822 | 104269
3 | 23:10.20 | 6:08.05 | 104270 | 131874
4 | 29:18.25 | 13:20.45 | 131875 | 191919
5 | 42:38.70 | 7:20.37 | 191920 | 224956
6 | 49:59.32 | 10:37.30 | 224957 | 272761
7 | 60:36.62 | 14:24.00 | 272762 | 337561
Range status and errors
Selected range
Filename C:\CD.wav
Peak level 95.0 %
Extraction speed 5.0 X
Range quality 100.0 %
Test CRC 7D128CC5
Copy CRC 7D128CC5
Copy OK
No errors occurred
AccurateRip summary
Track 1 accurately ripped (confidence 1) [9CD45573] (AR v2)
Track 2 accurately ripped (confidence 1) [F09ECC19] (AR v2)
Track 3 accurately ripped (confidence 1) [DEB5634E] (AR v2)
Track 4 accurately ripped (confidence 1) [BFBAB421] (AR v2)
Track 5 accurately ripped (confidence 1) [0311E252] (AR v2)
Track 6 accurately ripped (confidence 1) [EAC52DE9] (AR v2)
Track 7 not present in database
6 трек(и) скопированы точно
1 трек(и) не содержатся в базе AccurateRip
Some tracks could not be verified as accurate
End of status report
---- CUETools DB Plugin V2.1.6
[CTDB TOCID: J2khtDnGfyw.C_xO_ZeTfOBEVoU-] disk not present in database
Submit result: J2khtDnGfyw.C_xO_ZeTfOBEVoU- has been uploaded
==== Log checksum 22075CF2ECC3189BA102DCA5C6FD698C1D4ED5D792A298BEDD9ADB84AEE7306B ====

Содержание индексной карты (.CUE)

REM GENRE Classical
REM DISCID 59119407
REM COMMENT ExactAudioCopy v1.1
TITLE "Maderna Conducts Mozart"
FILE "CD.flac" WAVE
TRACK 01 AUDIO
TITLE "Symphonie Nr.38: I. Adagio - Allegro"
PERFORMER "SWR SO Stuttgart - B.Maderna"
INDEX 00 00:00:00
INDEX 01 00:00:32
TRACK 02 AUDIO
TITLE "II. Andante"
PERFORMER "SWR SO Stuttgart - B.Maderna"
INDEX 01 12:37:47
TRACK 03 AUDIO
TITLE "III. Presto"
PERFORMER "SWR SO Stuttgart - B.Maderna"
INDEX 01 23:10:20
TRACK 04 AUDIO
TITLE "Klavierkonzert Nr.24: I. Allegro"
PERFORMER "W.Kempff, Residenz Orchester den Haag - B.Maderna"
INDEX 00 29:16:30
INDEX 01 29:18:25
TRACK 05 AUDIO
TITLE "II. Larghetto"
PERFORMER "W.Kempff, Residenz Orchester den Haag - B.Maderna"
INDEX 01 42:38:70
TRACK 06 AUDIO
TITLE "III. Allegretto"
PERFORMER "W.Kempff, Residenz Orchester den Haag - B.Maderna"
INDEX 01 49:59:32
TRACK 07 AUDIO
TITLE "Exsultate, jubilate"
PERFORMER "H.Lukomska, Residenz Orchester den Haag - B.Maderna"
INDEX 00 60:34:52
INDEX 01 60:36:62
-Доп. информация: оркестровые сочинения Моцарта в исполнении одного из основных европейских авангардных композиторов второй половины ХХ века.



Показать сообщения:    

Текущее время: 07-Дек 19:26

Часовой пояс: UTC + 3


Вы не можете начинать темы
Вы не можете отвечать на сообщения
Вы не можете редактировать свои сообщения
Вы не можете удалять свои сообщения
Вы не можете голосовать в опросах
Вы не можете прикреплять файлы к сообщениям
Вы не можете скачивать файлы