Страница дневника / Сторінка щоденника (Евгений Ульшин) [1973 г., драма, экранизация, SATRip] Ukr + sub (rus)


 

[Цитировать]

Страница дневника / Сторінка щоденника Год выпуска: 1973.
Жанр: драма, экранизация.
Продолжительность: 01:50:05.
Перевод: субтитры.
Субтитры: русские (softsub - srt).
Оригинальная аудио дорожка: украинский.
Режиссер: Евгений Ульшин.
В ролях:
Евгений Пономаренко, Аркадий Гашинский, Юлия Ткаченко, Михаил Заднепровский, Екатерина Литвиненко, Степан Олексенко, Владимир Гончаров, Марина Герасименко, Наталия Лотоцкая.
О спектакле:
По одноименной пьесе Александра Корнейчука в постановке Киевского театра имени Ивана Франко.
Вступительное слово - заслуженного журналиста Украины, театрального критика Олега Вергилиса.

Дополнительная информация:
Страна: СССР .
Выпущено: Укртелефильм.
Автор: Александр Корнейчук.
Оператор: Виктор Кущ.
Композитор: Игорь Шамо.
Художник: Виталий Ясько.
Релиз
Рип sharky.
Спасибо
67viktor за исходный материал.


Качество видео:...SATRip
Формат:.................AVI
Видео:..704x528 (1.33:1), 25 fps, DivX Codec 4.x ~1279 kbps avg, 0.14 bit/pixel
Аудио:..48 kHz, MPEG Layer 3, 2 ch, ~128.00 kbps avg

Отчет Media Info

General
Complete name : Stranitsa.dnevnika.1973.DivX.SATRip.fenixclub\Stranitsa.dnevnika.1973.DivX.SATRip.fenixclub.avi
Format : AVI
Format/Info : Audio Video Interleave
File size : 1.09 GiB
Duration : 1h 50mn
Overall bit rate : 1 418 Kbps
Writing library : VirtualDub build 28292/release
Video
ID : 0
Format : MPEG-4 Visual
Format settings, BVOP : No
Format settings, QPel : No
Format settings, GMC : No warppoints
Format settings, Matrix : Default (H.263)
Codec ID : DX50
Codec ID/Hint : DivX 5
Duration : 1h 50mn
Bit rate : 1 280 Kbps
Width : 704 pixels
Height : 528 pixels
Display aspect ratio : 4:3
Frame rate : 25.000 fps
Color space : YUV
Chroma subsampling : 4:2:0
Bit depth : 8 bits
Scan type : Interlaced
Scan order : Bottom Field First
Compression mode : Lossy
Bits/(Pixel*Frame) : 0.138
Stream size : 1 008 MiB (90%)
Writing library : DivX 3013
Audio
ID : 1
Format : MPEG Audio
Format version : Version 1
Format profile : Layer 3
Codec ID : 55
Codec ID/Hint : MP3
Duration : 1h 50mn
Bit rate mode : Constant
Bit rate : 128 Kbps
Channel(s) : 2 channels
Sampling rate : 48.0 KHz
Compression mode : Lossy
Stream size : 101 MiB (9%)
Alignment : Split accross interleaves
Interleave, duration : 40 ms (1.00 video frame)
Interleave, preload duratio : 500 ms.

Скриншоты


Альтернативный хост





Показать сообщения:    

Текущее время: 04-Дек 23:23

Часовой пояс: UTC + 3


Вы не можете начинать темы
Вы не можете отвечать на сообщения
Вы не можете редактировать свои сообщения
Вы не можете удалять свои сообщения
Вы не можете голосовать в опросах
Вы не можете прикреплять файлы к сообщениям
Вы не можете скачивать файлы