(Classical, Piano) Frederic Chopin (Etudes, Mazurkas, Polonaises, etc.): Solidarni z Japonia {Zimerman, Olejniczak, Hesse-Bukowska, Harasiewicz, Paleczny, Blechacz, Poblocka} - 2011, FLAC (tracks+.cue), lossless


 

[Цитировать]

VA - Fryderyk Chopin: Solidarni z Japonia
Жанр: Classical, Piano
Страна-производитель диска: Польша
Год издания диска: 2011
Издатель (лейбл): Polskie Radio S.A./Universal Music Polska
Номер по каталогу: 476 442 7
Аудиокодек: FLAC
Тип рипа: tracks+.cue
Битрейт аудио: lossless
Продолжительность: 1:03:16
Источник (релизер): nolaan (what)
Наличие сканов в содержимом раздачи: нет
Треклист:
01. Ballade in G minor, Op.23 (9:35)
02. Etude in F major, Op.25 No.3 (1:44)
03. Etude in F major, Op.10 No.8 (2:21)
04. Etude in B minor, Op.25 No.10 (3:56)
05. Polonaise in C minor, Op.40 No.2 (7:14)
06. Mazurka in G major, Op.50 No.1 (2:10)
07. Mazurka in A-flat major, Op.50 No.2 (2:43)
08. Mazurka in C-sharp minor, Op.50 No.3 (4:30)
09. Polonaise in A-flat major, Op.53 (7:06)
10. Prelude in E minor, Op.28 No.4 (2:09)
11. Prelude in E major, Op.28 No.9 (1:42)
12. Prelude in F-sharp major, Op.28 No.13 (3:16)
13. Prelude in D-flat major, Op.28 No.15 (4:54)
14. Scherzo in B minor, Op.20 (9:56)
Исполнители:
Krystian Zimerman - piano (#1), recorded at Grosser Saal Rudolf-Oetker-Halle, Bielfeld in July 1997.
Janusz Olejniczak - piano (#2-4), recorded on 1st stage of the 8th International Chopin Piano Competition on October 13, 1970.
Barbara Hesse-Bukowska - piano (#5), Polish Radio archive recording from July 4, 1970.
Adam Harasiewicz - piano (#6-8), Polish Radio archive recordings from November 19, 2009.
Piotr Paleczny - piano (#9), Polish Radio archive recording from April 5, 1977.
Rafal Blechacz - piano (#10-13), recorded at Friedrich-Ebert-Halle, Hamburg in July 2007.
Ewa Poblocka - piano (#14), recorded on Witold Lutowslawski's Studio, Warsaw in 2009.

Лог создания рипа

Exact Audio Copy V1.0 beta 3 from 29. August 2011
EAC extraction logfile from 25. November 2012, 0:01
- / Solidarni z Japonią
Used drive : SlimtypeDVDRW SOSW-833S Adapter: 1 ID: 0
Read mode : Secure
Utilize accurate stream : Yes
Defeat audio cache : Yes
Make use of C2 pointers : No
Read offset correction : 6
Overread into Lead-In and Lead-Out : No
Fill up missing offset samples with silence : Yes
Delete leading and trailing silent blocks : No
Null samples used in CRC calculations : Yes
Used interface : Installed external ASPI interface
Gap handling : Appended to previous track
Used output format : User Defined Encoder
Selected bitrate : 1024 kBit/s
Quality : High
Add ID3 tag : No
Command line compressor : C:\Program Files\Exact Audio Copy\Flac\flac.exe
Additional command line options : -8 -V -T "ARTIST=%artist%" -T "TITLE=%title%" -T "ALBUM=%albumtitle%" -T "DATE=%year%" -T "TRACKNUMBER=%tracknr%" -T "GENRE=%genre%" -T "PERFORMER=%albuminterpret%" -T "COMPOSER=%composer%" %haslyrics%--tag-from-file=LYRICS="%lyricsfile%"%haslyrics% -T "ALBUMARTIST=%albumartist%" -T "DISCNUMBER=%cdnumber%" -T "TOTALDISCS=%totalcds%" -T "TOTALTRACKS=%numtracks%" -T "COMMENT=%comment%" %source% -o %dest%
TOC of the extracted CD
Track | Start | Length | Start sector | End sector
---------------------------------------------------------
1 | 0:00.00 | 9:34.66 | 0 | 43115
2 | 9:34.66 | 1:43.45 | 43116 | 50885
3 | 11:18.36 | 2:20.43 | 50886 | 61428
4 | 13:39.04 | 3:55.51 | 61429 | 79104
5 | 17:34.55 | 7:13.73 | 79105 | 111652
6 | 24:48.53 | 2:10.13 | 111653 | 121415
7 | 26:58.66 | 2:42.48 | 121416 | 133613
8 | 29:41.39 | 4:29.61 | 133614 | 153849
9 | 34:11.25 | 7:05.58 | 153850 | 185782
10 | 41:17.08 | 2:09.30 | 185783 | 195487
11 | 43:26.38 | 1:41.42 | 195488 | 203104
12 | 45:08.05 | 3:15.42 | 203105 | 217771
13 | 48:23.47 | 4:54.18 | 217772 | 239839
14 | 53:17.65 | 9:56.28 | 239840 | 284567
Track 1
Filename Z:\home\krysia\Various Performers - Chopin, Solidarni z Japonia (2011) [FLAC] {476 442 7}\01 - Krystian Zimerman - Ballad Op. 23 in G Minor.wav
Pre-gap length 0:00:02.00
Peak level 100.0 %
Extraction speed 2.6 X
Track quality 100.0 %
Test CRC 11F84068
Copy CRC 11F84068
Accurately ripped (confidence 3) [FB42B9EF] (AR v1)
Copy OK
Track 2
Filename Z:\home\krysia\Various Performers - Chopin, Solidarni z Japonia (2011) [FLAC] {476 442 7}\02 - Janusz Olejniczak - Etude Op. 25 No. 3 in F Major.wav
Pre-gap length 0:00:02.00
Peak level 100.0 %
Extraction speed 1.2 X
Track quality 99.8 %
Test CRC C088701B
Copy CRC C088701B
Accurately ripped (confidence 3) [E9DF905A] (AR v1)
Copy OK
Track 3
Filename Z:\home\krysia\Various Performers - Chopin, Solidarni z Japonia (2011) [FLAC] {476 442 7}\03 - Janusz Olejniczak - Etude Op. 10 No. 8 in F Major.wav
Pre-gap length 0:00:02.00
Peak level 92.5 %
Extraction speed 2.6 X
Track quality 100.0 %
Test CRC 285C4972
Copy CRC 285C4972
Accurately ripped (confidence 3) [C07B4234] (AR v1)
Copy OK
Track 4
Filename Z:\home\krysia\Various Performers - Chopin, Solidarni z Japonia (2011) [FLAC] {476 442 7}\04 - Janusz Olejniczak - Etude Op. 25 No. 10 in B Minor.wav
Pre-gap length 0:00:02.00
Peak level 100.0 %
Extraction speed 2.1 X
Track quality 99.9 %
Test CRC EC066642
Copy CRC EC066642
Accurately ripped (confidence 3) [B8EEB80B] (AR v1)
Copy OK
Track 5
Filename Z:\home\krysia\Various Performers - Chopin, Solidarni z Japonia (2011) [FLAC] {476 442 7}\05 - Barbara Hesse-Bukowska - Polonaise Op. 40 No. 2 in C Minor.wav
Pre-gap length 0:00:02.00
Peak level 76.0 %
Extraction speed 3.5 X
Track quality 100.0 %
Test CRC 0501CDC8
Copy CRC 0501CDC8
Accurately ripped (confidence 3) [42CD5D1C] (AR v1)
Copy OK
Track 6
Filename Z:\home\krysia\Various Performers - Chopin, Solidarni z Japonia (2011) [FLAC] {476 442 7}\06 - Adam Harasiewicz - Mazurka Op. 50 No. 1 in G Major.wav
Pre-gap length 0:00:02.00
Peak level 98.0 %
Extraction speed 3.1 X
Track quality 100.0 %
Test CRC 0D3970C4
Copy CRC 0D3970C4
Accurately ripped (confidence 3) [330E6131] (AR v1)
Copy OK
Track 7
Filename Z:\home\krysia\Various Performers - Chopin, Solidarni z Japonia (2011) [FLAC] {476 442 7}\07 - Adam Harasiewicz - Mazurka Op. 50 No. 2 in A Flat Major.wav
Pre-gap length 0:00:02.00
Peak level 85.7 %
Extraction speed 2.1 X
Track quality 99.9 %
Test CRC 78BC32F3
Copy CRC 78BC32F3
Accurately ripped (confidence 3) [29688760] (AR v1)
Copy OK
Track 8
Filename Z:\home\krysia\Various Performers - Chopin, Solidarni z Japonia (2011) [FLAC] {476 442 7}\08 - Adam Harasiewicz - Mazurka Op. 50 No. 3 in C Sharp Minor.wav
Pre-gap length 0:00:02.00
Peak level 100.0 %
Extraction speed 3.7 X
Track quality 100.0 %
Test CRC 1E2C933D
Copy CRC 1E2C933D
Accurately ripped (confidence 3) [97B87131] (AR v1)
Copy OK
Track 9
Filename Z:\home\krysia\Various Performers - Chopin, Solidarni z Japonia (2011) [FLAC] {476 442 7}\09 - Piotr Paleczny - Polonaise Op. 53 in A Flat Major.wav
Pre-gap length 0:00:02.00
Peak level 100.0 %
Extraction speed 4.1 X
Track quality 100.0 %
Test CRC 6A138663
Copy CRC 6A138663
Accurately ripped (confidence 3) [1ED5D829] (AR v1)
Copy OK
Track 10
Filename Z:\home\krysia\Various Performers - Chopin, Solidarni z Japonia (2011) [FLAC] {476 442 7}\10 - Rafał Blechacz - Prelude Op. 28 No. 3 in E Minor.wav
Pre-gap length 0:00:02.00
Peak level 83.2 %
Extraction speed 3.7 X
Track quality 100.0 %
Test CRC D4BA0D59
Copy CRC D4BA0D59
Accurately ripped (confidence 3) [3A475DAB] (AR v1)
Copy OK
Track 11
Filename Z:\home\krysia\Various Performers - Chopin, Solidarni z Japonia (2011) [FLAC] {476 442 7}\11 - Rafał Blechacz - Prelude Op. 28 No. 9 in E Major.wav
Pre-gap length 0:00:01.98
Peak level 100.0 %
Extraction speed 1.9 X
Track quality 99.8 %
Test CRC 95618F2C
Copy CRC 95618F2C
Accurately ripped (confidence 3) [C1B9C5B4] (AR v1)
Copy OK
Track 12
Filename Z:\home\krysia\Various Performers - Chopin, Solidarni z Japonia (2011) [FLAC] {476 442 7}\12 - Rafał Blechacz - Prelude Op. 28 No. 13 in F Sharp Major.wav
Pre-gap length 0:00:02.00
Peak level 95.3 %
Extraction speed 2.7 X
Track quality 99.9 %
Test CRC 8DE9B1D0
Copy CRC 8DE9B1D0
Accurately ripped (confidence 3) [C6447F2A] (AR v1)
Copy OK
Track 13
Filename Z:\home\krysia\Various Performers - Chopin, Solidarni z Japonia (2011) [FLAC] {476 442 7}\13 - Rafał Blechacz - Prelude Op. 28 No. 15 in D Flat Major.wav
Pre-gap length 0:00:02.00
Peak level 100.0 %
Extraction speed 4.4 X
Track quality 100.0 %
Test CRC AB16EEFF
Copy CRC AB16EEFF
Accurately ripped (confidence 3) [D18233A2] (AR v1)
Copy OK
Track 14
Filename Z:\home\krysia\Various Performers - Chopin, Solidarni z Japonia (2011) [FLAC] {476 442 7}\14 - Ewa Pobłocka - Scherzo Op. 20 in B Minor.wav
Pre-gap length 0:00:02.00
Peak level 100.0 %
Extraction speed 4.3 X
Track quality 100.0 %
Test CRC 8E3F285F
Copy CRC 8E3F285F
Accurately ripped (confidence 3) [00D41C0E] (AR v1)
Copy OK
All tracks accurately ripped
No errors occurred
End of status report
==== Log checksum 865BD24C4A47C70F684ECFEBFE819AB453FF6B097C6D09C25D08CC082B8AE1F5 ====

Содержание индексной карты (.CUE)

REM GENRE Classical
REM DATE 2011
REM DISCID C30ED20E
REM COMMENT "ExactAudioCopy v1.0b3"
PERFORMER "Various"
TITLE "Fryderyk Chopin: Solidarni z Japonia"
FILE "01 - Krystian Zimerman - Ballade in G minor, Op.23.wav" WAVE
TRACK 01 AUDIO
TITLE "Ballade in G minor, Op.23"
PERFORMER "Krystian Zimerman"
INDEX 01 00:00:00
TRACK 02 AUDIO
TITLE "Etude in F major, Op.25 No.3"
PERFORMER "Janusz Olejniczak"
INDEX 00 09:32:66
FILE "02 - Janusz Olejniczak - Etude in F major, Op.25 No.3.wav" WAVE
INDEX 01 00:00:00
TRACK 03 AUDIO
TITLE "Etude in F major, Op.10 No.8"
PERFORMER "Janusz Olejniczak"
INDEX 00 01:41:45
FILE "03 - Janusz Olejniczak - Etude in F major, Op.10 No.8.wav" WAVE
INDEX 01 00:00:00
TRACK 04 AUDIO
TITLE "Etude in B minor, Op.25 No.10"
PERFORMER "Janusz Olejniczak"
INDEX 00 02:18:43
FILE "04 - Janusz Olejniczak - Etude in B minor, Op.25 No.10.wav" WAVE
INDEX 01 00:00:00
TRACK 05 AUDIO
TITLE "Polonaise in C minor, Op.40 No.2"
PERFORMER "Barbara Hesse-Bukowska"
INDEX 00 03:53:51
FILE "05 - Barbara Hesse-Bukowska - Polonaise in C minor, Op.40 No.2.wav" WAVE
INDEX 01 00:00:00
TRACK 06 AUDIO
TITLE "Mazurka in G major, Op.50 No.1"
PERFORMER "Adam Harasiewicz"
INDEX 00 07:11:73
FILE "06 - Adam Harasiewicz - Mazurka in G major, Op.50 No.1.wav" WAVE
INDEX 01 00:00:00
TRACK 07 AUDIO
TITLE "Mazurka in A-flat major, Op.50 No.2"
PERFORMER "Adam Harasiewicz"
INDEX 00 02:08:13
FILE "07 - Adam Harasiewicz - Mazurka in A-flat major, Op.50 No.2.wav" WAVE
INDEX 01 00:00:00
TRACK 08 AUDIO
TITLE "Mazurka in C-sharp minor, Op.50 No.3"
PERFORMER "Adam Harasiewicz"
INDEX 00 02:40:48
FILE "08 - Adam Harasiewicz - Mazurka in C-sharp minor, Op.50 No.3.wav" WAVE
INDEX 01 00:00:00
TRACK 09 AUDIO
TITLE "Polonaise in A-flat major, Op.53"
PERFORMER "Piotr Paleczny"
INDEX 00 04:27:61
FILE "09 - Piotr Paleczny - Polonaise in A-flat major, Op.53.wav" WAVE
INDEX 01 00:00:00
TRACK 10 AUDIO
TITLE "Prelude in E minor, Op.28 No.4"
PERFORMER "Rafal Blechacz"
INDEX 00 07:03:58
FILE "10 - Rafal Blechacz - Prelude in E minor, Op.28 No.4.wav" WAVE
INDEX 01 00:00:00
TRACK 11 AUDIO
TITLE "Prelude in E major, Op.28 No.9"
PERFORMER "Rafal Blechacz"
INDEX 00 02:07:31
FILE "11 - Rafal Blechacz - Prelude in E major, Op.28 No.9.wav" WAVE
INDEX 01 00:00:00
TRACK 12 AUDIO
TITLE "Prelude in F-sharp major, Op.28 No.13"
PERFORMER "Rafal Blechacz"
INDEX 00 01:39:42
FILE "12 - Rafal Blechacz - Prelude in F-sharp major, Op.28 No.13.wav" WAVE
INDEX 01 00:00:00
TRACK 13 AUDIO
TITLE "Prelude in D-flat major, Op.28 No.15"
PERFORMER "Rafal Blechacz"
INDEX 00 03:13:42
FILE "13 - Rafal Blechacz - Prelude in D-flat major, Op.28 No.15.wav" WAVE
INDEX 01 00:00:00
TRACK 14 AUDIO
TITLE "Scherzo in B minor, Op.20"
PERFORMER "Ewa Poblocka"
INDEX 00 04:52:18
FILE "14 - Ewa Poblocka - Scherzo in B minor, Op.20.wav" WAVE
INDEX 01 00:00:00

Отчет CUETools

[CUETools log; Date: 13.02.2016 1:08:11; Version: 2.1.5]
[CTDB TOCID: LtUasY_6NAspyBmdsbpScCKDxHM-] found.
Track | CTDB Status
1 | (21/22) Accurately ripped
2 | (21/22) Accurately ripped
3 | (21/22) Accurately ripped
4 | (21/22) Accurately ripped
5 | (21/22) Accurately ripped
6 | (21/22) Accurately ripped
7 | (21/22) Accurately ripped
8 | (21/22) Accurately ripped
9 | (21/22) Accurately ripped
10 | (21/22) Accurately ripped
11 | (21/22) Accurately ripped
12 | (21/22) Accurately ripped
13 | (21/22) Accurately ripped
14 | (21/22) Accurately ripped
[AccurateRip ID: 001fc359-014bf98a-c30ed20e] found.
Track [ CRC | V2 ] Status
01 [fb42b9ef|ecdadead] (06+09/15) Accurately ripped
02 [e9df905a|4d8e38dc] (06+09/15) Accurately ripped
03 [c07b4234|c2c72f35] (06+09/15) Accurately ripped
04 [b8eeb80b|ca1a5cd8] (06+09/15) Accurately ripped
05 [42cd5d1c|7edf4311] (06+09/15) Accurately ripped
06 [330e6131|7519a2a1] (06+09/15) Accurately ripped
07 [29688760|f24f6882] (06+09/15) Accurately ripped
08 [97b87131|8d3a377c] (06+09/15) Accurately ripped
09 [1ed5d829|0c5d818b] (06+09/15) Accurately ripped
10 [3a475dab|05246556] (06+09/15) Accurately ripped
11 [c1b9c5b4|6a796a4d] (06+09/15) Accurately ripped
12 [c6447f2a|82f20708] (06+09/15) Accurately ripped
13 [d18233a2|13bf891f] (06+08/14) Accurately ripped
14 [00d41c0e|c70f04a9] (06+09/15) Accurately ripped
Track Peak [ CRC32 ] [W/O NULL] [ LOG ]
-- 100,0 [4E2F2F09] [FBE9BFAE]
01 100,0 [11F84068] [09E0666B] CRC32
02 100,0 [C088701B] [A72B2C6B] CRC32
03 92,5 [285C4972] [3BF50203] CRC32
04 100,0 [EC066642] [275DF8AE] CRC32
05 76,0 [0501CDC8] [0FD58DA8] CRC32
06 98,0 [0D3970C4] [58517401] CRC32
07 85,7 [78BC32F3] [C0B9A2DA] CRC32
08 100,0 [1E2C933D] [22D59664] CRC32
09 100,0 [6A138663] [67D1F7CD] CRC32
10 83,2 [D4BA0D59] [C9E4F217] CRC32
11 100,0 [95618F2C] [12D282C0] CRC32
12 95,3 [8DE9B1D0] [4648CA56] CRC32
13 100,0 [AB16EEFF] [AA4E22FB] CRC32
14 100,0 [8E3F285F] [FE50C3BB] CRC32

Об альбоме (сборнике)

8 kwietnia miał premierę album "Solidarni z Japonią!!!". Dochód z płyty zostanie przeznaczony na pomoc ofiarom kataklizmów, które ostatnio nawiedziły ten azjatycki kraj.
Album "Solidarni z Japonia" to wybór utworów Fryderyka Chopina w nagraniach polskich pianistów - laureatów Konkursów Chopinowskich. Oprócz nagrań Krystiana Zimermana oraz Rafała Blechacza, na albumie znajdą się interpretacje Piotra Palecznego, Janusza Olejniczaka, Ewy Pobłockiej, Barbary Hesse-Bukowskiej, Adama Harasiewicz. Niektóre z nagrań to rejestracje dokonane na żywo w trakcie Konukrsów Chopinowskich. Niewątpliwa ciekawostką są nagrania trzech Mazurków z op. 50 w wykonaniu Adama Harasiewicza, jurora zeszłorocznej edycji Konkursu Chopinowskiego oraz nauczyciela jednego z laureatów Konkursu z 2010 roku - Ingolfa Wundera.
Honorowym patronatem akcji "Solidarni z Japonią!!!" jest Prezydent RP Bronisław Komorowski.



Показать сообщения:    

Текущее время: 11-Дек 16:49

Часовой пояс: UTC + 3


Вы не можете начинать темы
Вы не можете отвечать на сообщения
Вы не можете редактировать свои сообщения
Вы не можете удалять свои сообщения
Вы не можете голосовать в опросах
Вы не можете прикреплять файлы к сообщениям
Вы не можете скачивать файлы