(Classical Contemporary) Per Bloland - Chamber Industrial - 2015, FLAC (tracks+.cue) lossless


 

[Цитировать]

Per Bloland: Chamber Industrial'
Жанр: Classical Contemporary
Страна-производитель диска: US
Год издания диска: 2015
Издатель (лейбл): Tzadik
Номер по каталогу: TZ 4008
Аудиокодек: FLAC
Тип рипа: tracks+.cue
Битрейт аудио: lossless
Продолжительность: 52:48
Источник: what.cd (raygarraty)
Наличие сканов в содержимом раздачи: да
Треклист :
01 Solis-Ea 11:33
for percussion and electronics
02 A Drift Of Swine 11:34
for flute, clarinet, piano and double bass
03 Wood Machine Music 11:01
for string quartet, clarinet, percussion and electronics
04 Of Dust And Sand 10:17
for alto saxophone and piano with electromagnets
05 ...walk Now And Then Into The Breath That Blows Coldly Past… 8:23
For flute and percussion'ECCE ENSEMBLE
ROBERTA MICHEL flute
VASKO DUKOVSKI clarinet
PHILIPP STAUDLIN saxophone
TRICIA PARK. ELLY SUH violins
VICKI POWELL viola
SERAFIM SMIGELSKIY violoncello, artistic director
DOUG BALLIETT double bass
WEI-CHIEH LIN piano, co-artistic director
JOHN AYLWARD piano with electromagnets, executive director
MIKE TRUESDELL percussion
JEFFREY MEANS conductor

Лог создания рипа

Exact Audio Copy V1.0 beta 4 from 7. December 2014
EAC extraction logfile from 14. June 2015, 8:55
Per Bloland / Chamber Industrial
Used drive : ATAPI iHAS124 B Adapter: 1 ID: 0
Read mode : Secure
Utilize accurate stream : Yes
Defeat audio cache : Yes
Make use of C2 pointers : No
Read offset correction : 6
Overread into Lead-In and Lead-Out : No
Fill up missing offset samples with silence : Yes
Delete leading and trailing silent blocks : No
Null samples used in CRC calculations : Yes
Used interface : Native Win32 interface for Win NT & 2000
Gap handling : Appended to previous track
Used output format : User Defined Encoder
Selected bitrate : 1024 kBit/s
Quality : High
Add ID3 tag : No
Command line compressor : C:\Program Files (x86)\FLAC Frontend\tools\flac.exe
Additional command line options : -8 -V -T "ARTIST=%artist%" -T "TITLE=%title%" -T "ALBUM=%albumtitle%" -T "DATE=%year%" -T "TRACKNUMBER=%tracknr%" -T "TOTALTRACKS=%numtracks%" -T "GENRE=%genre%" -T "ALBUMARTIST=%albumartist%" -T "ALBUM ARTIST=%albumartist%" -T "COMMENT=EAC Secure Mode, Test & Copy, AccurateRip, FLAC -8" %source%
TOC of the extracted CD
Track | Start | Length | Start sector | End sector
---------------------------------------------------------
1 | 0:00.00 | 11:32.58 | 0 | 51957
2 | 11:32.58 | 11:34.27 | 51958 | 104034
3 | 23:07.10 | 11:00.68 | 104035 | 153602
4 | 34:08.03 | 10:17.32 | 153603 | 199909
5 | 44:25.35 | 8:22.47 | 199910 | 237606
Track 1
Filename D:\_EAC\Per Bloland - Chamber Industrial (2015) [FLAC] {Tzadik TZ 4008}\01 - Solis-EA.wav
Pre-gap length 0:00:02.00
Peak level 89.6 %
Extraction speed 4.1 X
Track quality 100.0 %
Test CRC F29E3915
Copy CRC F29E3915
Track not present in AccurateRip database
Copy OK
Track 2
Filename D:\_EAC\Per Bloland - Chamber Industrial (2015) [FLAC] {Tzadik TZ 4008}\02 - A Drift of Swine.wav
Peak level 87.2 %
Extraction speed 5.2 X
Track quality 100.0 %
Test CRC F7B06E71
Copy CRC F7B06E71
Track not present in AccurateRip database
Copy OK
Track 3
Filename D:\_EAC\Per Bloland - Chamber Industrial (2015) [FLAC] {Tzadik TZ 4008}\03 - Wood Machine Music.wav
Peak level 92.9 %
Extraction speed 6.0 X
Track quality 100.0 %
Test CRC 8B394DD2
Copy CRC 8B394DD2
Track not present in AccurateRip database
Copy OK
Track 4
Filename D:\_EAC\Per Bloland - Chamber Industrial (2015) [FLAC] {Tzadik TZ 4008}\04 - Of Dust and Sand.wav
Peak level 94.6 %
Extraction speed 6.6 X
Track quality 100.0 %
Test CRC 417B1182
Copy CRC 417B1182
Track not present in AccurateRip database
Copy OK
Track 5
Filename D:\_EAC\Per Bloland - Chamber Industrial (2015) [FLAC] {Tzadik TZ 4008}\05 - ...Walk Now and Then Into the Breath that Blows Coldly Past....wav
Peak level 91.3 %
Extraction speed 6.2 X
Track quality 99.9 %
Test CRC 13F1D8DE
Copy CRC 13F1D8DE
Track not present in AccurateRip database
Copy OK
None of the tracks are present in the AccurateRip database
No errors occurred
End of status report
==== Log checksum 196C89D118BBBC5A77F4F3CBC23B1D11590BE1D69B7006E27ED3F32AFCB3BA31 ====

Содержание индексной карты (.CUE)

REM GENRE Classical
REM DATE 2015
REM DISCID 460C6005
REM COMMENT "ExactAudioCopy v1.0b4"
PERFORMER "Per Bloland"
TITLE "Chamber Industrial"
FILE "01 - Solis-EA.wav" WAVE
TRACK 01 AUDIO
TITLE "Solis-EA"
PERFORMER "Per Bloland"
FLAGS DCP
INDEX 01 00:00:00
FILE "02 - A Drift of Swine.wav" WAVE
TRACK 02 AUDIO
TITLE "A Drift of Swine"
PERFORMER "Per Bloland"
FLAGS DCP
INDEX 01 00:00:00
FILE "03 - Wood Machine Music.wav" WAVE
TRACK 03 AUDIO
TITLE "Wood Machine Music"
PERFORMER "Per Bloland"
FLAGS DCP
INDEX 01 00:00:00
FILE "04 - Of Dust and Sand.wav" WAVE
TRACK 04 AUDIO
TITLE "Of Dust and Sand"
PERFORMER "Per Bloland"
FLAGS DCP
INDEX 01 00:00:00
FILE "05 - ...Walk Now and Then Into the Breath that Blows Coldly Past....wav" WAVE
TRACK 05 AUDIO
TITLE "...Walk Now and Then Into the Breath that Blows Coldly Past..."
PERFORMER "Per Bloland"
FLAGS DCP
INDEX 01 00:00:00

Доп. информация:
Per Bloland studied at Stanford with Brian Ferneyhough and Mark Applebaum, has worked at IRCAM and Oberlin, and currently teaches at Miami University. His innovative sound world brilliantly blends custom built electronics with instrumental textures to create unique soundscapes unlike anything you’ve heard before. His work has been performed world wide to great acclaim and Tzadik is proud to present his first full CD release. Passionately performed by Ecce Ensemble Chamber Industrial is an exciting CD of acoustic and electroacoustic compositions filled with surprise and dramatic tension.
tzadik.com



Показать сообщения:    

Текущее время: 10-Дек 17:47

Часовой пояс: UTC + 3


Вы не можете начинать темы
Вы не можете отвечать на сообщения
Вы не можете редактировать свои сообщения
Вы не можете удалять свои сообщения
Вы не можете голосовать в опросах
Вы не можете прикреплять файлы к сообщениям
Вы не можете скачивать файлы