(opera) Gaetano Donizetti : Lucia di Lammermoor (Mariella Devia, Giuseppe Sabbatini, Vladimir Stoyanov - Gerard Korsten - 2004 ) WEB - 2008, FLAC (tracks) lossless


 

[Цитировать]

Gaetano Donizetti : Lucia di Lammermoor
Жанр: opera
Страна-производитель диска: Italy
Год издания диска: 2008
Издатель (лейбл): Dynamic
Номер по каталогу: CDS576
Дата записи: 2004
Аудиокодек: FLAC
Тип рипа: tracks
Битрейт аудио: lossless
Продолжительность: 2 hours 16 minutes
Источник: Сайт
сайт-источник/ник/другое: http://www.prestoclassical.co.uk/r/Dynamic/CDS576
Наличие сканов в содержимом раздачи: нет

Треклист

Act I Scene 1:
01. Prelude - Percorrete le spiagge vicine (Normanno, Chorus)
02. Tu sei turbato! … E n'ho ben donde (Normanno, Enrico, Raimondo)
03. Cruda, funesta smania (Enrico, Normanno, Raimondo)
04. La pietade in suo favore (Enrico, Raimondo, Chorus)
Scene 2:
05. Ancor non giunse? (Lucia, Alisa)
06. Regnava nel silenzio (Lucia, Alisa)
07. Quando rapito in estasi (Lucia, Alisa)
08. Egli s'avanza (Alisa, Edgardo, Lucia)
09. Qui di sposa eterna fede (Edgardo, Lucia)
10. Verranno a te sull'aure (Lucia, Edgardo)
Act II Scene 1:
11. Lucia fra poco a te verra (Normanno, Enrico)
12. Appressati, Lucia (Enrico)
13. Soffriva nel pianto (Lucia, Enrico)
14. Se tradirmi tu potrai (Enrico, Lucia)
Scene 2:
15. Ebben? - Di sua speranza (Lucia, Raimondo)
16. Ah! Cedi o piu sciagure (Raimondo)
17. Per te d'immenso giubilo … Per poco fra le tenebre (Chorus, Arturo)
18. Dov'e Lucia … Qui giungere or la vedrem (Arturo, Enrico, Chorus)
19. Chi mi frena in tal momento (Edgardo, Enrico, Lucia, Raimondo, Alisa, Chorus, Arturo)
20. T'allontana, sciagurato … Rispettate in me di Dio (Arturo, Enrico, Chorus, Raimondo)
Act III Scene 1:
21. Si tuona o cielo (Edgardo)
22. Qui del padre ancor respira (Edgardo)
23. D'immenso giubilo (Chorus)
24. Cessi ah cessi quel contento (Raimondo)
25. Il dolce suono (Lucia)
26. S'avanza Enrico (Raimondo)
27. Spargi d'amaro pianto (Lucia, Raimondo, Chorus, Enrico)
Scene 2:
28. Tombe degli avi miei (Edgardo)
29. Fra poco a me ricovero (Edgardo)
30. Oh, meschina! Oh, fato orrendo! (Chorus, Edgardo, Raimondo)
31. Tu che a Dio spiegasti l'ali (Edgardo, Raimondo, Chorus)

Исполнители

Conductor Gérard Korsten - 2004(LC)
Orchestra - Teatro Lirico di Cagliari
Chorus - Teatro Lirico di Cagliari
Lucia - Mariella Devia
Edgardo - Giuseppe Sabbatini
Enrico - Vladimir Stoyanov
Raimondo - Carlo Colombara
Arturo - Blago Nacoski
Alisa - Damiana Pinti
Normanno - Enrico Cossutta

Лог проверки качества

foobar2000 1.2.2 / Замер динамического диапазона (DR) 1.1.1
Дата отчёта: 2016-02-13 10:27:04
--------------------------------------------------------------------------------
Анализ: Carlo Colombara, Mariella Devia, Damiana Pinti, Gerard Korsten, Enrico Cossutta, Vladimir Stoyanov, Giuseppe Sabbatini, Cagliari Teatro Lirico Orchestra, Cagliari Teatro Lirico Chorus, Blagoj Nacoski / Donizetti: Lucia di Lammermoor (1-15)
Carlo Colombara/Mariella Devia/Damiana Pinti/Enrico Cossutta/Vladimir Stoyanov/Giuseppe Sabbatini/Cagliari Teatro Lirico Orchestra/Cagliari Teatro Lirico Chorus/Blagoj Nacoski / Donizetti: Lucia di Lammermoor (16-31)
--------------------------------------------------------------------------------
DR Пики RMS Продолжительность трека
--------------------------------------------------------------------------------
DR11 -4.26 дБ -18.70 дБ 3:13 ?-Lucia di Lammermoor: Act II Scene 2: Per te d'immenso giubilo … Per poco fra le tenebre (Chorus, Arturo)
DR11 -3.20 дБ -20.51 дБ 3:59 ?-Lucia di Lammermoor: Act II Scene 2: Dov'e Lucia … Qui giungere or la vedrem (Arturo, Enrico, Chorus)
DR11 -3.07 дБ -19.41 дБ 3:41 ?-Lucia di Lammermoor: Act II Scene 2: Chi mi frena in tal momento (Edgardo, Enrico, Lucia, Raimondo, Alisa, Chorus, Arturo)
DR10 -2.94 дБ -17.05 дБ 5:32 ?-Lucia di Lammermoor: Act II Scene 2: T'allontana, sciagurato … Rispettate in me di Dio (Arturo, Enrico, Chorus, Raimondo)
DR12 -3.17 дБ -20.06 дБ 2:44 ?-Lucia di Lammermoor: Act III Scene 1: Si tuona o cielo (Edgardo)
DR12 -3.99 дБ -20.36 дБ 5:38 ?-Lucia di Lammermoor: Act III Scene 1: Qui del padre ancor respira (Edgardo)
DR11 -3.67 дБ -18.48 дБ 1:38 ?-Lucia di Lammermoor: Act III Scene 1: D'immenso giubilo (Chorus)
DR11 -2.78 дБ -19.19 дБ 6:25 ?-Lucia di Lammermoor: Act III Scene 1: Cessi ah cessi quel contento (Raimondo)
DR12 -3.99 дБ -21.87 дБ 12:46 ?-Lucia di Lammermoor: Act III Scene 1: Il dolce suono (Lucia)
DR11 -3.29 дБ -18.77 дБ 2:51 ?-Lucia di Lammermoor: Act III Scene 1: S'avanza Enrico (Raimondo)
DR10 -3.38 дБ -19.45 дБ 4:37 ?-Lucia di Lammermoor: Act III Scene 1: Spargi d'amaro pianto (Lucia, Raimondo, Chorus, Enrico)
DR13 -7.39 дБ -25.45 дБ 4:35 ?-Lucia di Lammermoor: Act III Scene 2: Tombe degli avi miei (Edgardo)
DR12 -5.88 дБ -23.40 дБ 4:12 ?-Lucia di Lammermoor: Act II Scene 2: Fra poco a me ricovero (Edgardo)
DR12 -4.54 дБ -21.89 дБ 4:10 ?-Lucia di Lammermoor: Act III Scene 2: Oh, meschina! Oh, fato orrendo! (Chorus, Edgardo, Raimondo)
DR12 -3.05 дБ -21.81 дБ 5:16 ?-Lucia di Lammermoor: Act III Scene 2: Tu che a Dio spiegasti l'ali (Edgardo, Raimondo, Chorus)
DR12 -4.06 дБ -21.83 дБ 5:07 ?-Lucia di Lammermoor: Act I Scene 1: Prelude - Percorrete le spiagge vicine (Normanno, Chorus)
DR13 -7.26 дБ -25.37 дБ 2:49 ?-Lucia di Lammermoor: Act I Scene 1: Tu sei turbato! … E n'ho ben donde (Normanno, Enrico, Raimondo)
DR12 -4.27 дБ -21.56 дБ 4:07 ?-Lucia di Lammermoor: Act I Scene 1: Cruda, funesta smania (Enrico, Normanno, Raimondo)
DR11 -4.84 дБ -20.28 дБ 1:48 ?-Lucia di Lammermoor: Act I Scene 1: La pietade in suo favore (Enrico, Raimondo, Chorus)
DR14 -5.83 дБ -27.81 дБ 4:54 ?-Lucia di Lammermoor: Act I Scene 2: Ancor non giunse? (Lucia, Alisa)
DR11 -5.74 дБ -22.00 дБ 4:22 ?-Lucia di Lammermoor: Act I Scene 2: Regnava nel silenzio (Lucia, Alisa)
DR11 -5.07 дБ -20.19 дБ 4:40 ?-Lucia di Lammermoor: Act I Scene 2: Quando rapito in estasi (Lucia, Alisa)
DR11 -4.55 дБ -20.44 дБ 6:02 ?-Lucia di Lammermoor: Act I Scene 2: Egli s'avanza (Alisa, Edgardo, Lucia)
DR11 -3.84 дБ -20.14 дБ 2:39 ?-Lucia di Lammermoor: Act I Scene 2: Qui di sposa eterna fede (Edgardo, Lucia)
DR11 -2.86 дБ -18.78 дБ 5:26 ?-Lucia di Lammermoor: Act I Scene 2: Verranno a te sull'aure (Lucia, Edgardo)
DR14 -7.85 дБ -27.14 дБ 3:38 ?-Lucia di Lammermoor: Act II Scene 1: Lucia fra poco a te verra (Normanno, Enrico)
DR12 -4.94 дБ -22.09 дБ 5:23 ?-Lucia di Lammermoor: Act II Scene 1: Appressati, Lucia (Enrico)
DR12 -4.09 дБ -21.87 дБ 5:10 ?-Lucia di Lammermoor: Act II Scene 1: Soffriva nel pianto (Lucia, Enrico)
DR10 -3.74 дБ -18.75 дБ 2:23 ?-Lucia di Lammermoor: Act II Scene 1: Se tradirmi tu potrai (Enrico, Lucia)
DR14 -9.31 дБ -27.91 дБ 2:13 ?-Lucia di Lammermoor: Act II Scene 2: Ebben? - Di sua speranza (Lucia, Raimondo)
DR11 -3.42 дБ -19.42 дБ 4:34 ?-Lucia di Lammermoor: Act II Scene 2: Ah! Cedi o piu sciagure (Raimondo)
--------------------------------------------------------------------------------
Количество треков: 31
Реальные значения DR: DR12
Частота: 44100 Гц
Каналов: 2
Разрядность: 16
Битрейт: 631 кбит/с
Кодек: FLAC
================================================================================



Показать сообщения:    

Текущее время: 10-Дек 17:47

Часовой пояс: UTC + 3


Вы не можете начинать темы
Вы не можете отвечать на сообщения
Вы не можете редактировать свои сообщения
Вы не можете удалять свои сообщения
Вы не можете голосовать в опросах
Вы не можете прикреплять файлы к сообщениям
Вы не можете скачивать файлы