Jonas Kaufmann - The Best of Jonas Kaufmann (Arias By Verdi, Puccini, Leoncavallo, Bizet, Mascagni, Cilea, Giordano, Massenet, Gounod, Refice, Mozart, Weber, R. Strauss, Wagner) Web - 2013 (opera, vocal)


 

[Цитировать]

Jonas Kaufmann / The Best of Jonas Kaufmann
Год издания/переиздания диска: 2013
Жанр: opera, vocal
Издатель(лейбл): Decca
Продолжительность: 79 minutes
Наличие сканов в содержимом раздачи: Нет
Контейнер: FLAC (*.flac)
Тип рипа: tracks
Формат:Lossless)
Источник (релизер): http://www.prestoclassical.co.uk/r/Decca/4786029
Оркестр:
Prague Philharmonic Orchestra,
Orchestra dell'Accademia di Santa Cecilia,
Mahler Chamber Orchestra,
Orchestre Révolutionnaire et Romantique
Дирижер: Marco Armiliato, Antonio Pappano, Claudio Abbado, Sir John Eliot Gardiner
Исполнитель: Jonas Kaufmann, Renee Fleming

Треклист

Giuseppe Verdi
01. Io l'ho perduta... Io la vidi, a suo sorriso - Don Carlo / Act 1 (Jonas Kaufmann (tenor), Prague Philharmonic Orchestra, Marco Armiliato)
02. Lunge da lei...De miei bollenti spiriti...O mio rimorso - La traviata / Act 2 (Jonas Kaufmann (tenor), Prague Philharmonic Orchestra, Marco Armiliato)
03. Ella mi fu rapita...Parmi veder le lagrime - Rigoletto / Act 2 (Jonas Kaufmann (tenor), Prague Philharmonic Orchestra, Marco Armiliato)
Giacomo Puccini
04. Che gelida manina - La Bohème / Act 1 (Jonas Kaufmann (tenor), Prague Philharmonic Orchestra, Marco Armiliato)
05. E lucevan le stelle - Tosca / Act 3 (Jonas Kaufmann (tenor), Prague Philharmonic Orchestra, Marco Armiliato )
06. Bevo al tuo fresco sorriso - La Rondine / Act 2 (Jonas Kaufmann (tenor), Renee Fleming (soprano), Prague Philharmonic Orchestra, Marco Armiliato)
Ruggiero Leoncavallo
07. Recitar!...Vesti la giubba - Pagliacci / Act 1 (Jonas Kaufmann (tenor), Orchestra dell'Accademia di Santa Cecilia, Antonio Pappano)
Georges Bizet
08. La fleur que tu m'avais jetée - Carmen, WD 31 / Act 2 (Jonas Kaufmann (tenor), Prague Philharmonic Orchestra, Marco Armiliato)
Pietro Mascagni
09. Apri la tua finestra! - Iris / Act 1 (Jonas Kaufmann (tenor), Orchestra dell'Accademia di Santa Cecilia, Antonio Pappano)
10. Intanto, amici, qua...Viva il vino spumeggiante - Cavalleria rusticana (Jonas Kaufmann (tenor), Orchestra dell'Accademia di Santa Cecilia, Antonio Pappano)
Francesco Cilèa
11. E la solita storia - L'Arlesiana / Act 2 (Jonas Kaufmann (tenor), Orchestra dell'Accademia di Santa Cecilia, Antonio Pappano)
Umberto Giordano
12. Amor ti vieta - Fedora / Act 2 (Jonas Kaufmann (tenor), Orchestra dell'Accademia di Santa Cecilia, Antonio Pappano)
Jules Massenet
13. Pourquoi me réveiller, ô souffle du printemps? - Werther / Act 3 (Jonas Kaufmann (tenor), Prague Philharmonic Orchestra, Marco Armiliato)
Charles Gounod
14. Quel trouble inconnu...Salut! Demeure chaste et pure - Faust / Act 3 (Jonas Kaufmann (tenor), Prague Philharmonic Orchestra, Marco Armiliato)
Licinio Refice
15. Ombra di nube - Ombra di nube (Jonas Kaufmann (tenor), Orchestra dell'Accademia di Santa Cecilia, Antonio Pappano)
Wolfgang Amadeus Mozart
16. Dies Bildnis ist bezaubernd schön - Die Zauberflöte, K.620 / Act 1 (Jonas Kaufmann (tenor), Mahler Chamber Orchestra, Claudio Abbado)
Carl Maria von Weber
17. I Revel In Hope - Oberon - English Text Version with Narration / Act 3 (Jonas Kaufmann (tenor), Orchestre Révolutionnaire et Romantique, Sir John Eliot Gardiner)
Richard Strauss
18. No.2 Caecilie - Caecilie Op.27 (Jonas Kaufmann (tenor), Prague Philharmonic Orchestra, Marco Armiliato)
Richard Wagner
19. Winterstürme wichen dem Wonnemond - Die Walküre, WWV 86B / Act 1 (Jonas Kaufmann (tenor), Mahler Chamber Orchestra, Claudio Abbado)
20. Morgenlich leuchtend - Die Meistersinger von Nürnberg / Act 3, (Jonas Kaufmann (tenor), Prague Philharmonic Orchestra, Marco Armiliato)

Лог проверки качества

foobar2000 1.2.2 / Замер динамического диапазона (DR) 1.1.1
Дата отчёта: 2016-02-13 10:59:53
--------------------------------------------------------------------------------
Анализ: Jonas Kaufmann/Jana Sibera/Prague Philharmonic Orchestra / The Best of Jonas Kaufmann (1)
Jonas Kaufmann/Mahler Chamber Orchestra / The Best of Jonas Kaufmann (2-3)
Jonas Kaufmann/Orchestra dell'Accademia Nazionale di Santa Cecilia / The Best of Jonas Kaufmann (4-8)
Jonas Kaufmann/Orchestre Révolutionnaire et Romantique / The Best of Jonas Kaufmann (9)
Jonas Kaufmann/Prague Philharmonic Orchestra / The Best of Jonas Kaufmann (10-18)
Jonas Kaufmann/Rosa Feola/Coro dell'Accademia Nazionale Di Santa Cecilia/Orchestra dell'Accademia Nazionale di Santa Cecilia / The Best of Jonas Kaufmann (19)
Renée Fleming/Jonas Kaufmann/Barbara Vignudelli/Paolo Cautoruccio/Coro Sinfonico di Milano Giuseppe Verdi/Orchestra Sinfonica di Milano Giuseppe Verdi / The Best of Jonas Kaufmann (20)
--------------------------------------------------------------------------------
DR Пики RMS Продолжительность трека
--------------------------------------------------------------------------------
DR11 0.00 дБ -15.61 дБ 7:27 ?-La traviata / Act 2: 'Lunge da lei...De miei bollenti spiriti...O mio rimorso'
DR14 -0.23 дБ -20.25 дБ 3:58 ?-Die Zauberflöte, K.620 / Act 1: 'Dies Bildnis ist bezaubernd schön'
DR12 -0.29 дБ -17.47 дБ 3:49 ?-Die Walküre / Erster Aufzug: 'Winterstürme wichen dem Wonnemond'
DR12 0.00 дБ -16.04 дБ 3:41 ?-Pagliacci / Act 1: 'Recitar!...Vesti la giubba'
DR13 -2.38 дБ -21.71 дБ 2:45 ?-Iris / Act 1: 'Apri la tua finestra!'
DR12 -1.55 дБ -20.36 дБ 4:36 ?-L'Arlesiana / Act 2: 'E la solita storia'
DR13 -0.27 дБ -18.04 дБ 1:49 ?-Fedora / Act 2: 'Amor ti vieta'
DR14 -3.21 дБ -24.29 дБ 3:26 ?-'Ombra di nube'
DR13 -1.07 дБ -19.18 дБ 3:23 ?-Oberon - English Text Version with Narration / Act 3: 'I Revel In Hope'
DR12 -0.10 дБ -17.00 дБ 3:45 ?-Don Carlo / Act 1: 'Io l'ho perduta... Io la vidi, a suo sorriso'
DR13 -0.35 дБ -18.79 дБ 5:29 ?-Rigoletto / Act 2: 'Ella mi fu rapita...Parmi veder le lagrime'
DR10 0.00 дБ -15.77 дБ 5:09 ?-La Bohème / Act 1: 'Che gelida manina'
DR10 0.00 дБ -16.28 дБ 3:23 ?-Tosca / Act 3: 'E lucevan le stelle'
DR13 -0.65 дБ -19.85 дБ 4:20 ?-Carmen / Act 2: 'La fleur que tu m'avais jetée'
DR10 0.00 дБ -15.47 дБ 3:09 ?-Werther / Act 3: 'Pourquoi me réveiller, ô souffle du printemps?'
DR14 -0.12 дБ -20.77 дБ 6:15 ?-Faust / Act 3: 'Quel trouble inconnu...Salut! Demeure chaste et pure'
DR13 -0.43 дБ -18.35 дБ 2:14 ?-Caecilie
DR11 -0.13 дБ -15.79 дБ 5:16 ?-Die Meistersinger von Nürnberg / Act 3: 'Morgenlich leuchtend'
DR11 -0.05 дБ -14.91 дБ 2:51 ?-Cavalleria rusticana: 'Intanto, amici, qua...Viva il vino spumeggiante'
DR12 -0.26 дБ -17.19 дБ 3:04 ?-La Rondine / Act 2: 'Bevo al tuo fresco sorriso'
--------------------------------------------------------------------------------
Количество треков: 20
Реальные значения DR: DR12
Частота: 44100 Гц
Каналов: 2
Разрядность: 16
Битрейт: 665 кбит/с
Кодек: FLAC
================================================================================



Показать сообщения:    

Текущее время: 03-Дек 05:28

Часовой пояс: UTC + 3


Вы не можете начинать темы
Вы не можете отвечать на сообщения
Вы не можете редактировать свои сообщения
Вы не можете удалять свои сообщения
Вы не можете голосовать в опросах
Вы не можете прикреплять файлы к сообщениям
Вы не можете скачивать файлы