[TR24][OF] Gaetano Donizetti : Lucia di Lammermoor (Natalie Dessay, Владислав Сулимский, Piotr Beczala, Дмитрий Воропаев, Илья Банник, Сергей Скороходов - Валерий Гергиев 2010) - 2011 (opera)


Статистика раздачи [Обновить пиров]
Размер:  2.22 GB   |    Зарегистрирован:  8 месяцев 20 дней   |    Скачан:  0 раз

Полного источника не было: Никогда

 
   
 
 
 

[Цитировать]

Gaetano Donizetti : Lucia di Lammermoor (Natalie Dessay, Владислав Сулимский, Piotr Beczala, Дмитрий Воропаев, Илья Банник, Сергей Скороходов - Валерий Гергиев 2010)
Формат записи/Источник записи: [TR24][OF]
Наличие водяных знаков: Нет
Год издания/переиздания диска: 2011
Жанр: opera
Издатель(лейбл): Mariinsky
Продолжительность: 02:10:51
Наличие сканов в содержимом раздачи: Нет

Треклист

CD1
01: Act I, Scene 1, No 1 Preludio E Coro d'Introduzione "Percorrete Le Spiagge Vicine"
02: Act I, Scene 1, No 2 I. Scena E Cavatina "Tu Sei Turbato"
03: Act I, Scene 1, No 2 II. Larghetto "Cruda, Funesta Smania"
04: Act I, Scene 1, No 2 III. Coro Di Cacciatori "Il Tuo Dubbio"
05: Act I, Scene 1, No 2 IV. Allegro Moderato "La Pietade In Suo Favore"
06: Act I, Scene 2, No 3 I. Scena E Cavatina "Ancor Non Giunse!"
07: Act I, Scene 2, No 3 II. Larghetto "Regnava Nel Silenzio"
08: Act I, Scene 2, No 3 III. Moderato "Quando Rapito In Estasi"
09: Act I, Scene 2, No 4 I. Scena E Duetto - Finale I "Egli S'avanza!"
10: Act I, Scene 2, No. 4 II. Larghetto "Sulla Tomba"
11: Act I, Scene 2, No 4 III. Moderato Assai "Verranno A Te"
12: Act II, Scene 1, No 5 Scena "Lucia Fra Poco A Te Verra"
13: Act II, Scene 1, No 6 I. Duetto "Appressati, Lucia"
14: Act II, Scene 1, No 6 II. Larghetto "Soffriva Nel Pianto"
15: Act II, Scene 1, No 6 III. Vivace "Se Tradirmi Tu Potrai"
16: Act II, Scene 1, No 7 I. Scena Ed Aria "Ebben?"
17: Act II, Scene 1, No 7 II. Moderato "Al Ben De'tuoi"
CD2
18: Act II, Scene 2, No 8 I. Finale II - Coro E Cavatina "Per Te D'immenso"
19: Act II, Scene 2, No 8 II. Meno Mosso "Per Poco Fra Le Tenebre"
20: Act II, Scene 2, No 9 I. Scena E Quartetto Nel Finale II "Dov' E Lucia?"
21: Act II, Scene 2, No 9 II. Larghetto "Chi Mi Frena In Tal Momento?"
22: Act II, Scene 2, No 10 I. Seguito E Stretta Del Finale II "T'allontana, Sciagurato"
23: Act II, Scene 2, No 10 II. Moderato "Sconsigliato!"
24: Act III, Scene 1, No 11 I. Uragano. Scena E Duetto "Orrida E Questa Notte"
25: Act III, Scene 1, No 11 II. Andante "Ashton!"
26: Act III, Scene 2, No 12 Corro "D'immenso Giubilo"
27: Act III, Scene 2, No 13 Gran Scena Con Cori "Cessi, Ah Cessi Quel Contento"
28: Act III, Scene 2, No 14 I. Scena Ed Aria "Oh Giusto Cielo!"
29: Act III, Scene 2, No 14 II. Allegretto "Ohime!"
30: Act III, Scene 2, No 14 III. Moderato "Spargi D'amaro Pianto"
31: Act III, Scene 2, No 14 IV. Scena "Si Tragga Altrove"
32: Act III, Scene 3, No 15 I. Aria Finale "Tombe Degliavi Miei"
33: Act III, Scene 3, No 15 II. Moderato "Tu Che A Dio"
Контейнер: FLAC (*.flac)
Тип рипа: tracks
Разрядность: 24/96
Формат: WAV (flac.ape.wv)
Количество каналов: 2.0

Лог проверки качества

foobar2000 1.2.2 / Замер динамического диапазона (DR) 1.1.1
Дата отчёта: 2016-02-13 11:28:49
--------------------------------------------------------------------------------
Анализ: Valery Gergiev, Conductor - Gaetano Donizetti, Composer / Natalie Dessay, Piotr Beczala / Orchestra du Théâtre Mariinski, Valery Gergiev : Gaetano Donizetti : Lucia di Lammermoor
--------------------------------------------------------------------------------
DR Пики RMS Продолжительность трека
--------------------------------------------------------------------------------
DR13 -2.09 дБ -21.41 дБ 4:26 ?-Lucia di Lammermoor:Lucia di Lammermoor: Act I, Scene 1, No 1 Preludio e coro d'Introduzione "Percorrete le spiagge vicine"
DR13 -8.01 дБ -27.42 дБ 2:50 ?-Lucia di Lammermoor:Lucia di Lammermoor: Act I, Scene 1, No 2 i. Scena e Cavatina "Tu sei turbato"
DR13 -5.67 дБ -25.09 дБ 2:05 ?-Lucia di Lammermoor:Lucia di Lammermoor: Act I, Scene 1, No 2 ii. Larghetto "Cruda, funesta smania"
DR13 -2.96 дБ -22.44 дБ 2:05 ?-Lucia di Lammermoor:Lucia di Lammermoor: Act I, Scene 1, No 2 iii. Coro di Cacciatori "Il tuo dubbio"
DR13 -2.91 дБ -21.65 дБ 3:32 ?-Lucia di Lammermoor:Lucia di Lammermoor: Act I, Scene 1, No 2 iv. Allegro moderato "La pietade in suo favore"
DR15 -5.42 дБ -30.11 дБ 4:06 ?-Lucia di Lammermoor:Lucia di Lammermoor: Act I, Scene 2, No 3 i. Scena e Cavatina "Ancor non giunse!"
DR13 -3.14 дБ -25.61 дБ 4:05 ?-Lucia di Lammermoor:Lucia di Lammermoor: Act I, Scene 2, No 3 ii. Larghetto "Regnava nel silenzio"
DR13 -4.27 дБ -23.97 дБ 4:58 ?-Lucia di Lammermoor:Lucia di Lammermoor: Act I, Scene 2, No 3 iii. Moderato "Quando rapito in estasi"
DR13 -5.83 дБ -24.90 дБ 2:30 ?-Lucia di Lammermoor:Lucia di Lammermoor: Act I, Scene 2, No 4 i. Scena e Duetto - Finale I "Egli s'avanza!"
DR14 -5.57 дБ -25.53 дБ 5:16 ?-Lucia di Lammermoor:Lucia di Lammermoor: Act I, Scene 2, No. 4 ii. Larghetto "Sulla tomba"
DR14 -1.12 дБ -22.49 дБ 4:30 ?-Lucia di Lammermoor:Lucia di Lammermoor: Act I, Scene 2, No 4 iii. Moderato assai "Verranno a te"
DR12 -9.76 дБ -28.44 дБ 2:55 ?-Lucia di Lammermoor:Lucia di Lammermoor: Act II, Scene 1, No 5 Scena "Lucia fra poco a te verra"
DR15 -3.80 дБ -26.29 дБ 5:25 ?-Lucia di Lammermoor:Lucia di Lammermoor: Act II, Scene 1, No 6 i. Duetto "Appressati, Lucia"
DR14 -6.50 дБ -26.64 дБ 4:42 ?-Lucia di Lammermoor:Lucia di Lammermoor: Act II, Scene 1, No 6 ii. Larghetto "Soffriva nel pianto"
DR13 -2.42 дБ -21.91 дБ 2:56 ?-Lucia di Lammermoor:Lucia di Lammermoor: Act II, Scene 1, No 6 iii. Vivace "Se tradirmi tu potrai"
DR15 -4.93 дБ -26.38 дБ 4:02 ?-Lucia di Lammermoor:Lucia di Lammermoor: Act II, Scene 1, No 7 i. Scena ed Aria "Ebben?"
DR13 -2.20 дБ -21.74 дБ 3:32 ?-Lucia di Lammermoor:Lucia di Lammermoor: Act II, Scene 1, No 7 ii. Moderato "Al ben de'tuoi"
DR12 -1.79 дБ -19.47 дБ 1:20 ?-Lucia di Lammermoor:Lucia di Lammermoor: Act II, Scene 2, No 8 i. Finale II - Coro e Cavatina "Per te d'immenso"
DR12 -2.47 дБ -18.94 дБ 2:04 ?-Lucia di Lammermoor:Lucia di Lammermoor: Act II, Scene 2, No 8 ii. Meno mosso "Per poco fra le tenebre"
DR16 0.00 дБ -22.75 дБ 3:48 ?-Lucia di Lammermoor:Lucia di Lammermoor: Act II, Scene 2, No 9 i. Scena e Quartetto nel Finale II "Dov' e Lucia?"
DR14 0.00 дБ -21.71 дБ 3:31 ?-Lucia di Lammermoor:Lucia di Lammermoor: Act II, Scene 2, No 9 ii. Larghetto "Chi mi frena in tal momento?"
DR13 -5.90 дБ -22.96 дБ 1:11 ?-Lucia di Lammermoor:Lucia di Lammermoor: Act II, Scene 2, No 10 i. Seguito e Stretta del Finale II "T'allontana, sciagurato"
DR13 0.00 дБ -18.62 дБ 4:24 ?-Lucia di Lammermoor:Lucia di Lammermoor: Act II, Scene 2, No 10 ii. Moderato "Sconsigliato!"
DR12 -3.53 дБ -21.37 дБ 2:06 ?-Lucia di Lammermoor:Lucia di Lammermoor: Act III, Scene 1, No 11 i. Uragano. Scena e Duetto "Orrida e questa notte"
DR14 -3.92 дБ -23.89 дБ 7:45 ?-Lucia di Lammermoor:Lucia di Lammermoor: Act III, Scene 1, No 11 ii. Andante "Ashton!"
DR12 -2.15 дБ -19.23 дБ 1:31 ?-Lucia di Lammermoor:Lucia di Lammermoor: Act III, Scene 2, No 12 Corro "D'immenso giubilo"
DR13 -1.73 дБ -21.55 дБ 4:40 ?-Lucia di Lammermoor:Lucia di Lammermoor: Act III, Scene 2, No 13 Gran Scena con Cori "Cessi, ah cessi quel contento"
DR14 -8.94 дБ -30.02 дБ 2:47 ?-Lucia di Lammermoor:Lucia di Lammermoor: Act III, Scene 2, No 14 i. Scena ed Aria "Oh giusto cielo!"
DR15 -0.29 дБ -25.62 дБ 11:23 ?-Lucia di Lammermoor:Lucia di Lammermoor: Act III, Scene 2, No 14 ii. Allegretto "Ohime!"
DR13 0.00 дБ -22.20 дБ 4:14 ?-Lucia di Lammermoor:Lucia di Lammermoor: Act III, Scene 2, No 14 iii. Moderato "Spargi d'amaro pianto"
DR15 -10.46 дБ -31.06 дБ 1:38 ?-Lucia di Lammermoor:Lucia di Lammermoor: Act III, Scene 2, No 14 iv. Scena "Si tragga altrove"
DR15 -3.74 дБ -25.32 дБ 10:19 ?-Lucia di Lammermoor:Lucia di Lammermoor: Act III, Scene 3, No 15 i. Aria Finale "Tombe degliavi miei"
DR14 -2.28 дБ -22.97 дБ 4:25 ?-Lucia di Lammermoor:Lucia di Lammermoor: Act II, Scene 3, No 15 ii. Moderato "Tu che a Dio"
--------------------------------------------------------------------------------
Количество треков: 33
Реальные значения DR: DR14
Частота: 96000 Гц
Каналов: 2
Разрядность: 24
Битрейт: 2423 кбит/с
Кодек: FLAC
================================================================================
Источник (релизер): http://www.qobuz.com/gb-en/album/gaetano-donizetti-lucia-di-lammermoor-natalie-de...1851226?qref=dpa
Оркестр: Оркестр и хор Мариинского театра
Mariinsky Orchestra and Chorus
Композитор: Gaetano Donizetti
Дирижер: Валерий Гергиев

Состав

Гаэтано ДОНИЦЕТТИ
(1797-1848)
ЛЮЧИЯ ДИ ЛАММЕРМУР
Опера в 3-х действиях
Лорд Генри Эштон (владелец замка) - Владислав СУЛИМСКИЙ
Лючия (его сестра) - Натали ДЕССЕЙ
Сэр Эдгар Равеясвуд - Петр БЕЧАЛА
Лорд Артур Беклоу - Дмитрий ВОРОПАЕВ
Раймонд Бидебенд (наставник Лючии) - Илья БАННИК
Алиса (камеристка Лючии) - Жанна ДОМБРОВСКАЯ
Норман (начальник стражи в замке Равенсвуд) - Сергей СКОРОХОДОВ
Дамы и кавалеры, жители Ламмермура - Хор
Солдаты - Хор
Слуги - Хор
Гости на свадьбе - Хор
Стеклянная Гармоника - Саша РЕКЕРТ
Арфа - Софья КИПРСКАЯ
Симфонический оркестр и хор Мариинского театра
Музыкальный руководитель и дирижер - Валерий ГЕРГИЕВ
Gaetano DONIZETTI
(1797-1848)
LUCIA DI LAMMERMOOR
An opera In three acts
Enrico / Lord Henry Ashton (Lord of Lammermoor) - Vladislav SULIMSKY
Lucia / Lucy Ashton (his sister) - Natalie DESSAY
Edgardo / Sir Edgar, Master of Ravenswood - Piotr BECZALA
Arturo / Lord Arthur Bucklaw - Dmitry VOROPAEV
Raimondo Bidebent / Raymond Bide-the-Bent (Lucia’s chaplain and tutor) - Ilya BANNIK
Alisa / Alice (Lucia’s handmaid) - Zhanna DOMBROVSKAYA
Normanno / Norman (Captain of the Guard at Ravenswood) - Sergei SKOROKHODOV
Ladies and Gentlemen, Inhabitants of Lammermoor - Chorus
Soldiers - Chorus
Servants - Chorus
Wedding guests - Chorus
Glass Harmonica - Sascha RECKERT
Harp Sofia - KIPRSKAYA
Orchestra and Chorus of the Mariinsky Theatre
Musical Director and Conductor - Valery GERGIEV
[teatrix.ru].t22961.torrent 
Торрент: Зарегистрирован [ 2016-03-21 00:35 ] · AAA516EF3C217BFE99FD9104FD181E5729E80167

Скачать .torrent

Скачать

15 KB

Статус: проверено
Скачан: 0 раз
Размер: 2.22 GB
terms.php



Быстрый ответ

Имя:

      
Для отправки сообщений необходимо включить JavaScript
Показать сообщения:    

Текущее время: 10-Дек 11:53

Часовой пояс: UTC + 3


Вы можете начинать темы
Вы можете отвечать на сообщения
Вы не можете редактировать свои сообщения
Вы не можете удалять свои сообщения
Вы не можете голосовать в опросах
Вы не можете прикреплять файлы к сообщениям
Вы можете скачивать файлы