(Classical) W.A. Mozart - Symphonies Nos. 21-41, Josef Alois Krips & Royal Concertgebouw Orchestra, 6CD FLAC (image+.cue) lossless


 

[Цитировать]

W.A. Mozart. Symphonies Nos. 21-41, Josef Alois Krips & Royal Concertgebouw Orchestra
Жанр: Classical
Страна-производитель диска: EU
Год издания диска: 2007
Издатель (лейбл): Decca
Номер по каталогу: 000886702
ASIN: B0016111B4
Дата записи: 1972-1974
Аудиокодек: FLAC
Тип рипа: image+.cue
Битрейт аудио: lossless
Продолжительность: 06:31:54
Источник: demonoid
Наличие сканов в содержимом раздачи: да

CD1 - 1974-Symphony No.21, 22, 23, 24, 25. KV.134, KV.162, KV.181, KV.182, KV.183

Треклист:
Symphony No. 21 In A Major, KV.134
01. I.Allegro [05:51]
02. II.Andante [04:43]
03. III.Menuetto - Trio [03:35]
04. IV.Allegro [03:50]
Symphony No. 22 In C Major, KV.162
05. I.Allegro Assai [03:38]
06. II.Andantino Grazioso [02:36]
07. III.Presto Assai [02:11]
Symphony No. 23 In D Major, KV.181
08. Allegro Spiritoso - Andante Grazioso - Presto [10:02]
Symphony No. 24 In B-Flat Major, KV.182
09. I.Allegro Spiritoso [04:23]
10. II.Andantino Grazioso [02:29]
11. III.Allegro [01:48]
Symphony No. 25 In G Minor, KV.183
12. I.Allegro Con Brio [07:55]
13. II.Andante [03:36]
14. III.Menuetto - Trio [03:44]
15. IV.Allegro [06:01]
Прoдoлжительность: 01:06:22

CD2 1973-Symphony No.26, 27, 28, 29, KV.184, KV.199, KV.200, KV.201

Треклист:
Symphony No.26 in E flat major, KV.184 [161a]
01. I.Molto presto [03:04]
02. II.Andante; III.Allegro [05:16]
Symphony No.27 in G major, KV.199 [161b]
03. I.Allegro [04:55]
04. II.Andantino grazioso [04:35]
05. III.Presto [05:02]
Symphony No.28 in C major, KV.200 [189k]
06. I.Allegro spiritoso [05:36]
07. II.Andante [05:12]
08. III.Menuetto: Allegreto [04:06]
09. IV.Presto [04:21]
Symphony No.29 in A major, KV.201 [186a]
10. I.Allegro moderato [08:12]
11. II.Andante [06:16]
12. III.Menuetto [03:29]
13. IV.Allegro con spirito [05:25]
Прoдолжительность: 01:05:06

CD3 1974-Symphony No.30, 33, 34, KV.202, KV.319, KV.338

Треклист:
Symphony no.30 in D major, KV.202
01. I.Molto allegro [06:39]
02. II.Andantino con moto [03:48]
03. III.Menuetto [04:05]
04. IV.Presto [03:37]
Symphony no.33 in B-flat major, KV.319
05. I.Allegro assai [07:41]
06. II.Andante moderato [04:36]
07. III.Menuetto [02:48]
08. IV.Finale [Allegro assai] [06:46]
Symphony no.34 in C major, KV.338
09. I.Allegro vivace [07:22]
10. II.Andante di molto [07:06]
11. III.Finale [Allegro vivace] [06:25]
Прoдолжительность: 01:00:33

CD4 1974-Symphony No.31, 35, 36, KV.297, KV.385 'Haffner', KV.425 'Linz'

Треклист:
Symphony No.31 in D, KV.297 'Paris'
01. I.Allegro assai [07:29]
02. II.Andante [05:16]
03. III.Allegro [03:54]
04. IV.Andante to KV.297 [04:50]
Symphony No.35 in D, KV.385 'Haffner'
05. I.Allegro con spirito [05:42]
06. II.Andante [04:56]
07. III.Menuetto [03:16]
08. IV.Finale [Presto] [04:16]
Symphony No.36 in C, KV.425 'Linz'
09. I.Adagio I.Allegro spiritoso [11:18]
10. II.Andante [08:19]
11. III.Menuetto [03:42]
12. IV.Finale [Presto] [08:27]
Прoдолжительность: 01:10:51

CD5 1972-Symphony No.39, 41. KV.543, KV.551 'Jupiter'

Треклист:
Symphony No.39 in E flat, KV.543
01. I.Adagio – Allegro [09:03]
02. II.Andante con moto [08:14]
03. III.Menuetto [Allegretto] [04:19]
04. IV.Finale [Allegro] [04:25]
Symphony No.41 in C, KV.551 'Jupiter'
05. I.Allegro vivace [12:38]
06. II.Andante cantabile [12:38]
07. III.Menuetto [Allegretto] [05:25]
08. IV.Molto allegro [06:50]
Прoдолжительность: 00:58:46

CD6 1972-Symphony No.40, 32, 38. KV.550, KV.318 [Overture in G], KV.504 'Prague'

Треклист:
Symphony No.40 in G minor, KV.550
01. I.Molto allegro [09:35]
02. II.Andante [07:35]
03. III.Menuetto [Allegretto] [04:46]
04. IV.Finale [Allegro assai] [07:18]
Symphony No.32 in G, KV.318 [Overture in G]
05. I.Allegro spiritoso [03:18]
06. II.Andante [02:37]
07. III.Tempo I [02:09]
Symphony No.38 in D, KV.504 'Prague'
08. I.Adagio – Allegro [13:03]
09. II.Andante [07:44]
10. III.Finale [Presto] [06:12]
Прoдолжительность: 01:03:49
Исполнители:
Royal Concertgebouw Orchestra
conductor: Josef Alois Krips

Лог создания рипа

CD1 Отчёт ЕАС:

Exact Audio Copy V1.0 beta 3 from 29. August 2011
[br]
EAC extraction logfile from 28. September 2014, 18:55
[br]
Mozart / The Great Symphonies 21-41 (Krips - Concertgebouw Orch.) CD1 [nos. 21-25]
[br]
Used drive  : TSSTcorpCDDVDW SN-208BB   Adapter: 1  ID: 0
[br]
Read mode               : Secure
Utilize accurate stream : Yes
Defeat audio cache      : Yes
Make use of C2 pointers : No
[br]
Read offset correction                      : 6
Overread into Lead-In and Lead-Out          : No
Fill up missing offset samples with silence : Yes
Delete leading and trailing silent blocks   : No
Null samples used in CRC calculations       : Yes
Used interface                              : Native Win32 interface for Win NT & 2000
[br]
Used output format              : User Defined Encoder
Selected bitrate                : 128 kBit/s
Quality                         : High
Add ID3 tag                     : No
Command line compressor         : C:\Program Files (x86)\Exact Audio Copy\Flac\flac-1.3.0-x64-icl\flac.exe
Additional command line options : -V -8 -T "Date=%year%" -T "Genre=%genre%" %source%
[br]
TOC of the extracted CD
[br]
Track |   Start  |  Length  | Start sector | End sector
---------------------------------------------------------
1  |  0:00.33 |  5:51.00 |        33    |    26357
2  |  5:51.33 |  4:43.00 |     26358    |    47582
3  | 10:34.33 |  3:35.00 |     47583    |    63707
4  | 14:09.33 |  3:50.00 |     63708    |    80957
5  | 17:59.33 |  3:38.00 |     80958    |    97307
6  | 21:37.33 |  2:36.00 |     97308    |   109007
7  | 24:13.33 |  2:11.00 |    109008    |   118832
8  | 26:24.33 | 10:02.00 |    118833    |   163982
9  | 36:26.33 |  4:23.00 |    163983    |   183707
10  | 40:49.33 |  2:29.00 |    183708    |   194882
11  | 43:18.33 |  1:48.00 |    194883    |   202982
12  | 45:06.33 |  7:55.00 |    202983    |   238607
13  | 53:01.33 |  3:36.00 |    238608    |   254807
14  | 56:37.33 |  3:44.00 |    254808    |   271607
15  | 60:21.33 |  6:01.00 |    271608    |   298682
[br]
Range status and errors
[br]
Selected range
[br]
Filename D:\Music\Mozart - The Great Symphonies 21-41 CD1 [nos. 21-25].wav
[br]
Peak level 100.0 %
Extraction speed 3.3 X
Range quality 100.0 %
Test CRC DE69311A
Copy CRC DE69311A
Copy OK
[br]
No errors occurred
[br]
AccurateRip summary
[br]
Track  1  accurately ripped (confidence 11)  [6A29ACD5]  (AR v2)
Track  2  accurately ripped (confidence 11)  [2269FC26]  (AR v2)
Track  3  accurately ripped (confidence 11)  [A0B64A70]  (AR v2)
Track  4  accurately ripped (confidence 11)  [0A349B43]  (AR v2)
Track  5  accurately ripped (confidence 10)  [830EBD40]  (AR v2)
Track  6  accurately ripped (confidence 10)  [23AE96C3]  (AR v2)
Track  7  accurately ripped (confidence 10)  [BB2A9562]  (AR v2)
Track  8  accurately ripped (confidence 10)  [84EBC642]  (AR v2)
Track  9  accurately ripped (confidence 10)  [36CB2062]  (AR v2)
Track 10  accurately ripped (confidence 10)  [403A115D]  (AR v2)
Track 11  accurately ripped (confidence 10)  [75425F40]  (AR v2)
Track 12  accurately ripped (confidence 10)  [7124CBA1]  (AR v2)
Track 13  cannot be verified as accurate (confidence 9)  [82CA6B98], AccurateRip returned [ADCE2504]  (AR v2)
Track 14  cannot be verified as accurate (confidence 9)  [8B7B4AF9], AccurateRip returned [1D2569D4]  (AR v2)
Track 15  accurately ripped (confidence 10)  [E82D4A79]  (AR v2)
[br]
13 трек(и) скопированы точно
2 трек(и) не удалось проверить на точность
[br]
Some tracks could not be verified as accurate
[br]
End of status report
[br]
---- CUETools DB Plugin V2.1.3
[br]
[CTDB TOCID: _pJ_PFWgyPfH8QmfkKPBjrUYzME-] disk not present in database, Submit result: discs with pregaps not supported in this protocol version
[br]
==== Log checksum 0EDFCBC7D650ADAB664B789EE41D47635A6940BF1F92D00E60503D779BD86791 ====

CD2 Отчёт ЕАС:

Exact Audio Copy V1.0 beta 3 from 29. August 2011
[br]
EAC extraction logfile from 10. October 2014, 9:35
[br]
Royal Concertgebouw Orchestra / Symphonies (CD2)
[br]
Used drive  : TSSTcorpCDDVDW SN-208BB   Adapter: 1  ID: 0
[br]
Read mode               : Secure
Utilize accurate stream : Yes
Defeat audio cache      : Yes
Make use of C2 pointers : No
[br]
Read offset correction                      : 6
Overread into Lead-In and Lead-Out          : No
Fill up missing offset samples with silence : Yes
Delete leading and trailing silent blocks   : No
Null samples used in CRC calculations       : Yes
Used interface                              : Native Win32 interface for Win NT & 2000
[br]
Used output format              : User Defined Encoder
Selected bitrate                : 128 kBit/s
Quality                         : High
Add ID3 tag                     : No
Command line compressor         : C:\Program Files (x86)\Exact Audio Copy\Flac\flac-1.3.0-x64-icl\flac.exe
Additional command line options : -V -8 -T "Date=%year%" -T "Genre=%genre%" %source%
[br]
TOC of the extracted CD
[br]
Track |   Start  |  Length  | Start sector | End sector
---------------------------------------------------------
1  |  0:00.33 |  3:04.00 |        33    |    13832
2  |  3:04.33 |  5:16.00 |     13833    |    37532
3  |  8:20.33 |  4:55.00 |     37533    |    59657
4  | 13:15.33 |  4:35.00 |     59658    |    80282
5  | 17:50.33 |  5:02.00 |     80283    |   102932
6  | 22:52.33 |  5:36.00 |    102933    |   128132
7  | 28:28.33 |  5:12.00 |    128133    |   151532
8  | 33:40.33 |  4:06.00 |    151533    |   169982
9  | 37:46.33 |  4:21.00 |    169983    |   189557
10  | 42:07.33 |  8:12.00 |    189558    |   226457
11  | 50:19.33 |  6:16.00 |    226458    |   254657
12  | 56:35.33 |  3:28.37 |    254658    |   270294
13  | 60:03.70 |  5:24.38 |    270295    |   294632
[br]
Range status and errors
[br]
Selected range
[br]
Filename C:\Users\pav\Music\CD2-Symphony no.26-29\Royal Concertgebouw Orchestra - Symphonies (CD2).wav
[br]
Peak level 95.7 %
Extraction speed 3.3 X
Range quality 100.0 %
Test CRC D161CC1F
Copy CRC D161CC1F
Copy OK
[br]
No errors occurred
[br]
AccurateRip summary
[br]
Track  1  accurately ripped (confidence 9)  [35D077C5]  (AR v2)
Track  2  accurately ripped (confidence 9)  [0060E306]  (AR v2)
Track  3  accurately ripped (confidence 8)  [3880B3D6]  (AR v2)
Track  4  accurately ripped (confidence 8)  [DAC8196B]  (AR v2)
Track  5  accurately ripped (confidence 8)  [796BDA31]  (AR v2)
Track  6  accurately ripped (confidence 8)  [040F2686]  (AR v2)
Track  7  accurately ripped (confidence 8)  [38B89BF9]  (AR v2)
Track  8  accurately ripped (confidence 8)  [03A98D97]  (AR v2)
Track  9  accurately ripped (confidence 8)  [7C6F76BC]  (AR v2)
Track 10  accurately ripped (confidence 8)  [64DB4EE1]  (AR v2)
Track 11  accurately ripped (confidence 8)  [B0F5A281]  (AR v2)
Track 12  accurately ripped (confidence 8)  [0DC72B23]  (AR v2)
Track 13  accurately ripped (confidence 8)  [5B93D8B1]  (AR v2)
[br]
All tracks accurately ripped
[br]
End of status report
[br]
---- CUETools DB Plugin V2.1.3
[br]
[CTDB TOCID: a.HS7BxBTC13Osy4lK2SzQQdfzM-] database access error: Невозможно разрешить удаленное имя: 'db.cuetools.net'
[br]
==== Log checksum 24B817CFB4DB3B151E567016B56FFAD69BB6351C5873E611DE04D9FACC8DC4AD ====

CD3 Отчёт ЕАС:

Exact Audio Copy V1.0 beta 3 from 29. August 2011
[br]
EAC extraction logfile from 30. September 2014, 2:20
[br]
Mozart / CD3-Symphony no. 30, 33, 34
[br]
Used drive  : TSSTcorpCDDVDW SN-208BB   Adapter: 1  ID: 0
[br]
Read mode               : Secure
Utilize accurate stream : Yes
Defeat audio cache      : Yes
Make use of C2 pointers : No
[br]
Read offset correction                      : 6
Overread into Lead-In and Lead-Out          : No
Fill up missing offset samples with silence : Yes
Delete leading and trailing silent blocks   : No
Null samples used in CRC calculations       : Yes
Used interface                              : Native Win32 interface for Win NT & 2000
[br]
Used output format              : User Defined Encoder
Selected bitrate                : 128 kBit/s
Quality                         : High
Add ID3 tag                     : No
Command line compressor         : C:\Program Files (x86)\Exact Audio Copy\Flac\flac-1.3.0-x64-icl\flac.exe
Additional command line options : -V -8 -T "Date=%year%" -T "Genre=%genre%" %source%
[br]
TOC of the extracted CD
[br]
Track |   Start  |  Length  | Start sector | End sector
---------------------------------------------------------
1  |  0:00.32 |  6:39.00 |        32    |    29956
2  |  6:39.32 |  3:48.00 |     29957    |    47056
3  | 10:27.32 |  4:04.38 |     47057    |    65394
4  | 14:31.70 |  3:36.37 |     65395    |    81631
5  | 18:08.32 |  7:41.00 |     81632    |   116206
6  | 25:49.32 |  4:36.00 |    116207    |   136906
7  | 30:25.32 |  2:48.00 |    136907    |   149506
8  | 33:13.32 |  6:46.00 |    149507    |   179956
9  | 39:59.32 |  7:22.00 |    179957    |   213106
10  | 47:21.32 |  7:06.00 |    213107    |   245056
11  | 54:27.32 |  6:25.00 |    245057    |   273931
[br]
Range status and errors
[br]
Selected range
[br]
Filename D:\Music\CD3-Symphony no. 30, 33, 34\CD3-Symphony no. 30, 33, 34.wav
[br]
Peak level 85.9 %
Extraction speed 3.2 X
Range quality 100.0 %
Test CRC 0025179F
Copy CRC 0025179F
Copy OK
[br]
No errors occurred
[br]
AccurateRip summary
[br]
Track  1  accurately ripped (confidence 10)  [241DF043]  (AR v2)
Track  2  accurately ripped (confidence 10)  [531833AC]  (AR v2)
Track  3  accurately ripped (confidence 10)  [38EA127B]  (AR v2)
Track  4  accurately ripped (confidence 10)  [48CF9B19]  (AR v2)
Track  5  accurately ripped (confidence 9)  [F7037C1B]  (AR v2)
Track  6  accurately ripped (confidence 9)  [B9357861]  (AR v2)
Track  7  accurately ripped (confidence 9)  [20008EE9]  (AR v2)
Track  8  accurately ripped (confidence 9)  [5C029CFF]  (AR v2)
Track  9  accurately ripped (confidence 9)  [859DAE7A]  (AR v2)
Track 10  accurately ripped (confidence 9)  [876D5BB6]  (AR v2)
Track 11  accurately ripped (confidence 9)  [213D5BCD]  (AR v2)
[br]
All tracks accurately ripped
[br]
End of status report
[br]
---- CUETools DB Plugin V2.1.3
[br]
[CTDB TOCID: UaiS1ZoOxOeCV3K1sH3tB_znMgc-] disk not present in database, Submit result: discs with pregaps not supported in this protocol version
[br]
==== Log checksum 864603E3CD6A1508BCC4D7D713B9F95EDD02FEAB2CA542C0131E5F76E0D951F3 ====

CD4 Отчёт ЕАС:

Exact Audio Copy V1.0 beta 3 from 29. August 2011
[br]
EAC extraction logfile from 1. October 2014, 12:23
[br]
Josef Krips / CD4-Symphony no.31, 25-36
[br]
Used drive  : TSSTcorpCDDVDW SN-208BB   Adapter: 1  ID: 0
[br]
Read mode               : Secure
Utilize accurate stream : Yes
Defeat audio cache      : Yes
Make use of C2 pointers : No
[br]
Read offset correction                      : 6
Overread into Lead-In and Lead-Out          : No
Fill up missing offset samples with silence : Yes
Delete leading and trailing silent blocks   : No
Null samples used in CRC calculations       : Yes
Used interface                              : Native Win32 interface for Win NT & 2000
[br]
Used output format              : User Defined Encoder
Selected bitrate                : 128 kBit/s
Quality                         : High
Add ID3 tag                     : No
Command line compressor         : C:\Program Files (x86)\Exact Audio Copy\Flac\flac-1.3.0-x64-icl\flac.exe
Additional command line options : -V -8 -T "Date=%year%" -T "Genre=%genre%" %source%
[br]
TOC of the extracted CD
[br]
Track |   Start  |  Length  | Start sector | End sector
---------------------------------------------------------
1  |  0:00.32 |  7:29.00 |        32    |    33706
2  |  7:29.32 |  5:16.00 |     33707    |    57406
3  | 12:45.32 |  3:54.00 |     57407    |    74956
4  | 16:39.32 |  4:50.00 |     74957    |    96706
5  | 21:29.32 |  5:42.00 |     96707    |   122356
6  | 27:11.32 |  4:56.00 |    122357    |   144556
7  | 32:07.32 |  3:16.00 |    144557    |   159256
8  | 35:23.32 |  4:16.00 |    159257    |   178456
9  | 39:39.32 | 11:18.00 |    178457    |   229306
10  | 50:57.32 |  8:19.00 |    229307    |   266731
11  | 59:16.32 |  3:42.00 |    266732    |   283381
12  | 62:58.32 |  8:27.00 |    283382    |   321406
[br]
Range status and errors
[br]
Selected range
[br]
Filename D:\Music\CD4-Symphony no.31, 25-36\CD4-Symphony no.31, 25-36.wav
[br]
Peak level 99.9 %
Extraction speed 3.4 X
Range quality 99.9 %
Test CRC 2E0380CB
Copy CRC 2E0380CB
Copy OK
[br]
No errors occurred
[br]
AccurateRip summary
[br]
Track  1  not present in database
Track  2  not present in database
Track  3  not present in database
Track  4  not present in database
Track  5  not present in database
Track  6  not present in database
Track  7  not present in database
Track  8  not present in database
Track  9  not present in database
Track 10  not present in database
Track 11  not present in database
Track 12  not present in database
[br]
None of the tracks are present in the AccurateRip database
[br]
End of status report
[br]
---- CUETools DB Plugin V2.1.3
[br]
[CTDB TOCID: YxmZVCb2qcYNoXZNjOvCjRZVEKw-] database access error: Невозможно разрешить удаленное имя: 'db.cuetools.net'
[br]
==== Log checksum 71CF2726D45AF849D9A44F0FC229B858CBD062EBFBF2B5ED279DC815E57792DB ====

CD5 Отчёт ЕАС:

Exact Audio Copy V1.0 beta 3 from 29. August 2011
[br]
EAC extraction logfile from 1. October 2014, 13:39
[br]
Josef Krips / CD5-Symphony no.39, 41
[br]
Used drive  : TSSTcorpCDDVDW SN-208BB   Adapter: 1  ID: 0
[br]
Read mode               : Secure
Utilize accurate stream : Yes
Defeat audio cache      : Yes
Make use of C2 pointers : No
[br]
Read offset correction                      : 6
Overread into Lead-In and Lead-Out          : No
Fill up missing offset samples with silence : Yes
Delete leading and trailing silent blocks   : No
Null samples used in CRC calculations       : Yes
Used interface                              : Native Win32 interface for Win NT & 2000
[br]
Used output format              : User Defined Encoder
Selected bitrate                : 128 kBit/s
Quality                         : High
Add ID3 tag                     : No
Command line compressor         : C:\Program Files (x86)\Exact Audio Copy\Flac\flac-1.3.0-x64-icl\flac.exe
Additional command line options : -V -8 -T "Date=%year%" -T "Genre=%genre%" %source%
[br]
TOC of the extracted CD
[br]
Track |   Start  |  Length  | Start sector | End sector
---------------------------------------------------------
1  |  0:00.32 |  9:03.00 |        32    |    40756
2  |  9:03.32 |  8:14.00 |     40757    |    77806
3  | 17:17.32 |  4:19.00 |     77807    |    97231
4  | 21:36.32 |  4:25.00 |     97232    |   117106
5  | 26:01.32 | 12:38.00 |    117107    |   173956
6  | 38:39.32 | 12:38.00 |    173957    |   230806
7  | 51:17.32 |  5:25.00 |    230807    |   255181
8  | 56:42.32 |  6:50.00 |    255182    |   285931
[br]
Range status and errors
[br]
Selected range
[br]
Filename D:\Music\CD5-Symphony no.39, 41\CD5-Symphony no.39, 41.wav
[br]
Peak level 83.6 %
Extraction speed 3.3 X
Range quality 100.0 %
Test CRC 8EF7D863
Copy CRC 8EF7D863
Copy OK
[br]
No errors occurred
[br]
AccurateRip summary
[br]
Track  1  not present in database
Track  2  not present in database
Track  3  not present in database
Track  4  not present in database
Track  5  not present in database
Track  6  not present in database
Track  7  not present in database
Track  8  not present in database
[br]
None of the tracks are present in the AccurateRip database
[br]
End of status report
[br]
---- CUETools DB Plugin V2.1.3
[br]
[CTDB TOCID: bMxBtTV.LmJlMZwGiU9xJ8cm6As-] database access error: Невозможно разрешить удаленное имя: 'db.cuetools.net'
[br]
==== Log checksum 60A1CC5BBE37CC474E6B88AD350DC6936AA6BB19273556A3D5162CA79BEFAB07 ====

CD6 Отчёт ЕАС:

Exact Audio Copy V1.0 beta 3 from 29. August 2011
[br]
EAC extraction logfile from 1. October 2014, 15:44
[br]
Josef Krips / CD6-Symphonies 40, 32, 38
[br]
Used drive  : TSSTcorpCDDVDW SN-208BB   Adapter: 1  ID: 0
[br]
Read mode               : Secure
Utilize accurate stream : Yes
Defeat audio cache      : Yes
Make use of C2 pointers : No
[br]
Read offset correction                      : 6
Overread into Lead-In and Lead-Out          : No
Fill up missing offset samples with silence : Yes
Delete leading and trailing silent blocks   : No
Null samples used in CRC calculations       : Yes
Used interface                              : Native Win32 interface for Win NT & 2000
[br]
Used output format              : User Defined Encoder
Selected bitrate                : 128 kBit/s
Quality                         : High
Add ID3 tag                     : No
Command line compressor         : C:\Program Files (x86)\Exact Audio Copy\Flac\flac-1.3.0-x64-icl\flac.exe
Additional command line options : -V -8 -T "Date=%year%" -T "Genre=%genre%" %source%
[br]
TOC of the extracted CD
[br]
Track |   Start  |  Length  | Start sector | End sector
---------------------------------------------------------
1  |  0:00.32 |  9:35.00 |        32    |    43156
2  |  9:35.32 |  7:35.00 |     43157    |    77281
3  | 17:10.32 |  4:46.00 |     77282    |    98731
4  | 21:56.32 |  7:18.00 |     98732    |   131581
5  | 29:14.32 |  3:17.25 |    131582    |   146381
6  | 32:31.57 |  2:36.45 |    146382    |   158126
7  | 35:08.27 |  2:08.05 |    158127    |   167731
8  | 37:16.32 | 13:03.00 |    167732    |   226456
9  | 50:19.32 |  7:44.00 |    226457    |   261256
10  | 58:03.32 |  6:12.00 |    261257    |   289156
[br]
Range status and errors
[br]
Selected range
[br]
Filename D:\Music\CD6-Symphonies 40, 32, 38\CD6-Symphonies 40, 32, 38.wav
[br]
Peak level 87.0 %
Extraction speed 3.3 X
Range quality 100.0 %
Test CRC 745C0E92
Copy CRC 745C0E92
Copy OK
[br]
No errors occurred
[br]
AccurateRip summary
[br]
Track  1  not present in database
Track  2  not present in database
Track  3  not present in database
Track  4  not present in database
Track  5  not present in database
Track  6  not present in database
Track  7  not present in database
Track  8  not present in database
Track  9  not present in database
Track 10  not present in database
[br]
None of the tracks are present in the AccurateRip database
[br]
End of status report
[br]
---- CUETools DB Plugin V2.1.3
[br]
[CTDB TOCID: SBoIExoa2VPyV93ziuamKzg5_PI-] database access error: Невозможно разрешить удаленное имя: 'db.cuetools.net'
[br]
==== Log checksum 661EBE0A8D778FA25F5C211138BFAE6BBF3A628B99B16785447210F9CFE5E104 ====

Содержание индексной карты (.CUE)

CD1 Содержание индексной карты (*.cue):

REM EDIT CUESheet Editor for CA RipTools 12.12.2014 18:52:55
REM DATE 1974
REM GENRE Classical
REM DISCID D90F8E0F
REM DISCNUMBER 1
REM TOTALDISCS 6
REM PUBLISHER DECCA
REM PUBNUMBER 4758474
REM COMMENT ExactAudioCopy v1.0b3
CATALOG 0028947584735
PERFORMER "Royal Concertgebouw Orchestra"
TITLE "CD1-Symphony no.21-25"
COMPOSER "Wolfgang Amadeus Mozart"
FILE "1974 CD1-Symphony no.21-25.flac" WAVE
TRACK 01 AUDIO
PERFORMER "Josef Krips"
TITLE "Symphony No.21 In A Major, KV.134 I.Allegro"
INDEX 00 00:00:00
INDEX 01 00:00:33
TRACK 02 AUDIO
PERFORMER "Josef Krips"
TITLE "Symphony No.21 In A Major, KV.134 II.Andante"
INDEX 01 05:51:33
TRACK 03 AUDIO
PERFORMER "Josef Krips"
TITLE "Symphony No.21 In A Major, KV.134 III.Menuetto-Trio"
INDEX 01 10:34:33
TRACK 04 AUDIO
PERFORMER "Josef Krips"
TITLE "Symphony No.21 In A Major, KV.134 IV.Allegro"
INDEX 01 14:09:33
TRACK 05 AUDIO
PERFORMER "Josef Krips"
TITLE "Symphony No.22 In C Major, KV.162 I.Allegro Assai"
INDEX 01 17:59:33
TRACK 06 AUDIO
PERFORMER "Josef Krips"
TITLE "Symphony No.22 In C Major, KV.162 II.Andantino Grazioso"
INDEX 01 21:37:33
TRACK 07 AUDIO
PERFORMER "Josef Krips"
TITLE "Symphony No.22 In C Major, KV.162 III.Presto Assai"
INDEX 01 24:13:33
TRACK 08 AUDIO
PERFORMER "Josef Krips"
TITLE "Symphony No.23 In D Major, KV.181 Allegro Spiritoso"
INDEX 01 26:24:33
TRACK 09 AUDIO
PERFORMER "Josef Krips"
TITLE "Symphony No.24 In B-Flat Major, KV.182 I.Allegro Spiritoso"
INDEX 01 36:26:33
TRACK 10 AUDIO
PERFORMER "Josef Krips"
TITLE "Symphony No.24 In B-Flat Major, KV.182 II.Andantino Grazioso"
INDEX 01 40:49:33
TRACK 11 AUDIO
PERFORMER "Josef Krips"
TITLE "Symphony No.24 In B-Flat Major, KV.182 III.Allegro"
INDEX 01 43:18:33
TRACK 12 AUDIO
PERFORMER "Josef Krips"
TITLE "Symphony No.25 In G Minor, KV.183 I.Allegro Con Brio"
INDEX 01 45:06:33
TRACK 13 AUDIO
PERFORMER "Josef Krips"
TITLE "Symphony No.25 In G Minor, KV.183 II.Andante"
INDEX 01 53:01:33
TRACK 14 AUDIO
PERFORMER "Josef Krips"
TITLE "Symphony No.25 In G Minor, KV.183 III.Menuetto-Trio"
INDEX 01 56:37:33
TRACK 15 AUDIO
PERFORMER "Josef Krips"
TITLE "Symphony No.25 In G Minor, KV.183 IV.Allegro"
INDEX 01 60:21:33

CD2 Содержание индексной карты (*.cue):

REM EDIT CUESheet Editor for CA RipTools 11.02.2016 16:10:10
REM DATE 1973
REM GENRE Classical
REM DISCID A50F580D
REM DISCNUMBER 2
REM TOTALDISCS 6
REM PUBLISHER Decca
REM COMMENT ExactAudioCopy v1.0b3
CATALOG 0028947584735
PERFORMER "Royal Concertgebouw Orchestra"
TITLE "Symphonies (CD2)"
FILE "CD2-Symphony no.26-29.flac" WAVE
TRACK 01 AUDIO
PERFORMER "Josef Krips"
TITLE "Symphony No.26 in E flat major, K.184 (161a)-I.Molto presto"
INDEX 00 00:00:00
INDEX 01 00:00:33
TRACK 02 AUDIO
PERFORMER "Josef Krips"
TITLE "Symphony No.26 in E flat major, K.184 (161a)-II.Andante; III.Allegro"
INDEX 01 03:04:33
TRACK 03 AUDIO
PERFORMER "Josef Krips"
TITLE "Symphony No.27 in G major, K.199 (161b)-I.Allegro"
INDEX 01 08:20:33
TRACK 04 AUDIO
PERFORMER "Josef Krips"
TITLE "Symphony No.27 in G major, K.199 (161b)-II.Andantino grazioso"
INDEX 01 13:15:33
TRACK 05 AUDIO
PERFORMER "Josef Krips"
TITLE "Symphony No.27 in G major, K.199 (161b)-III.Presto"
INDEX 01 17:50:33
TRACK 06 AUDIO
PERFORMER "Josef Krips"
TITLE "Symphony No.28 in C major, K.200 (189k)-I.Allegro spiritoso"
INDEX 01 22:52:33
TRACK 07 AUDIO
PERFORMER "Josef Krips"
TITLE "Symphony No.28 in C major, K.200 (189k)-II.Andante"
INDEX 01 28:28:33
TRACK 08 AUDIO
PERFORMER "Josef Krips"
TITLE "Symphony No.28 in C major, K.200 (189k)-III.Menuetto: Allegreto"
INDEX 01 33:40:33
TRACK 09 AUDIO
PERFORMER "Josef Krips"
TITLE "Symphony No.28 in C major, K.200 (189k)-IV.Presto"
INDEX 01 37:46:33
TRACK 10 AUDIO
PERFORMER "Josef Krips"
TITLE "Symphony No.29 in A major, K.201 (186a)-I.Allegro moderato"
INDEX 01 42:07:33
TRACK 11 AUDIO
PERFORMER "Josef Krips"
TITLE "Symphony No.29 in A major, K.201 (186a)-II.Andante"
INDEX 01 50:19:33
TRACK 12 AUDIO
PERFORMER "Josef Krips"
TITLE "Symphony No.29 in A major, K.201 (186a)-III.Menuetto"
INDEX 01 56:35:33
TRACK 13 AUDIO
PERFORMER "Josef Krips"
TITLE "Symphony No.29 in A major, K.201 (186a)-IV.Allegro con spirito"
INDEX 01 60:03:70

CD3 Содержание индексной карты (*.cue):

REM EDIT CUESheet Editor for CA RipTools 11.02.2016 16:11:36
REM DATE 1973
REM GENRE Classical
REM DISCID 960E440B
REM DISCNUMBER 3
REM TOTALDISCS 6
REM PUBLISHER DECCA
REM PUBNUMBER 475846
REM COMMENT ExactAudioCopy v1.0b3
CATALOG 0028947584735
PERFORMER "Royal Concertgebouw Orchestra"
TITLE "CD3-Symphony no.30, 33, 34"
COMPOSER "Wolfgang Amadeus Mozart"
FILE "CD3-Symphony no.30, 33, 34.flac" WAVE
TRACK 01 AUDIO
PERFORMER "Josef Krips"
TITLE "Symphony no.30 in D major, KV.202 I.Molto allegro"
INDEX 00 00:00:00
INDEX 01 00:00:32
TRACK 02 AUDIO
PERFORMER "Josef Krips"
TITLE "Symphony no.30 in D major, KV.202 II.Andantino con moto"
INDEX 00 06:39:30
INDEX 01 06:39:32
TRACK 03 AUDIO
PERFORMER "Josef Krips"
TITLE "Symphony no.30 in D major, KV.202 III.Menuetto"
INDEX 00 10:27:30
INDEX 01 10:27:32
TRACK 04 AUDIO
PERFORMER "Josef Krips"
TITLE "Symphony no.30 in D major, KV.202 IV.Presto"
INDEX 00 14:31:68
INDEX 01 14:31:70
TRACK 05 AUDIO
PERFORMER "Josef Krips"
TITLE "Symphony no.33 in B-flat major, KV.319 I.Allegro assai"
INDEX 00 18:08:30
INDEX 01 18:08:32
TRACK 06 AUDIO
PERFORMER "Josef Krips"
TITLE "Symphony no.33 in B-flat major, KV.319 II.Andante moderato"
INDEX 00 25:49:30
INDEX 01 25:49:32
TRACK 07 AUDIO
PERFORMER "Josef Krips"
TITLE "Symphony no.33 in B-flat major, KV.319 III.Menuetto"
INDEX 00 30:25:30
INDEX 01 30:25:32
TRACK 08 AUDIO
PERFORMER "Josef Krips"
TITLE "Symphony no.33 in B-flat major, KV.319 IV.Finale (Allegro assai)"
INDEX 00 33:13:30
INDEX 01 33:13:32
TRACK 09 AUDIO
PERFORMER "Josef Krips"
TITLE "Symphony no.34 in C major, KV.338 I.Allegro vivace"
INDEX 00 39:59:30
INDEX 01 39:59:32
TRACK 10 AUDIO
PERFORMER "Josef Krips"
TITLE "Symphony no.34 in C major, KV.338 II.Andante di molto"
INDEX 00 47:21:30
INDEX 01 47:21:32
TRACK 11 AUDIO
PERFORMER "Josef Krips"
TITLE "Symphony no.34 in C major, KV.338 III.Finale (Allegro vivace)"
INDEX 00 54:27:30
INDEX 01 54:27:32

CD4 Содержание индексной карты (*.cue):

REM EDIT CUESheet Editor for CA RipTools 11.02.2016 16:13:09
REM DATE 1974
REM GENRE Classical
REM DISCID A110BD0C
REM DISCNUMBER 4
REM TOTALDISCS 6
REM PUBLISHER DECCA
REM PUBNUMBER 4758477
REM COMMENT ExactAudioCopy v1.0b3
CATALOG 0028947584735
PERFORMER "Royal Concertgebouw Orchestra"
TITLE "CD4-Symphony no.31, 25-36"
COMPOSER "Wolfgang Amadeus Mozart"
FILE "CD4-Symphony no.31, 25-36.flac" WAVE
TRACK 01 AUDIO
PERFORMER "Josef Krips"
TITLE "Symphony No.31 in D, KV.297 'Paris' I.Allegro assai"
INDEX 00 00:00:00
INDEX 01 00:00:32
TRACK 02 AUDIO
PERFORMER "Josef Krips"
TITLE "Symphony No.31 in D, KV.297 'Paris' II.Andante"
INDEX 00 07:29:30
INDEX 01 07:29:32
TRACK 03 AUDIO
PERFORMER "Josef Krips"
TITLE "Symphony No.31 in D, KV.297 'Paris' III.Allegro"
INDEX 00 12:45:30
INDEX 01 12:45:32
TRACK 04 AUDIO
PERFORMER "Josef Krips"
TITLE "Symphony No.31 in D, KV.297 'Paris' IV.Andante to KV.297"
INDEX 00 16:39:30
INDEX 01 16:39:32
TRACK 05 AUDIO
PERFORMER "Josef Krips"
TITLE "Symphony No.35 in D, KV.385 'Haffner' I.Allegro con spirito"
INDEX 00 21:29:30
INDEX 01 21:29:32
TRACK 06 AUDIO
PERFORMER "Josef Krips"
TITLE "Symphony No.35 in D, KV.385 'Haffner' II.Andante"
INDEX 00 27:11:30
INDEX 01 27:11:32
TRACK 07 AUDIO
PERFORMER "Josef Krips"
TITLE "Symphony No.35 in D, KV.385 'Haffner' III.Menuetto"
INDEX 00 32:07:30
INDEX 01 32:07:32
TRACK 08 AUDIO
PERFORMER "Josef Krips"
TITLE "Symphony No.35 in D, KV.385 'Haffner' IV.Finale (Presto)"
INDEX 00 35:23:30
INDEX 01 35:23:32
TRACK 09 AUDIO
PERFORMER "Josef Krips"
TITLE "Symphony No.36 in C, KV.425 'Linz'I.Adagio I.Allegro spiritoso"
INDEX 00 39:39:30
INDEX 01 39:39:32
TRACK 10 AUDIO
PERFORMER "Josef Krips"
TITLE "Symphony No.36 in C, KV.425 'Linz' II.Andante"
INDEX 00 50:57:30
INDEX 01 50:57:32
TRACK 11 AUDIO
PERFORMER "Josef Krips"
TITLE "Symphony No.36 in C, KV.425 'Linz' III.Menuetto"
INDEX 00 59:16:30
INDEX 01 59:16:32
TRACK 12 AUDIO
PERFORMER "Josef Krips"
TITLE "Symphony No.36 in C, KV.425 'Linz' IV.Finale (Presto)"
INDEX 00 62:58:30
INDEX 01 62:58:32

CD5 Содержание индексной карты (*.cue):

REM EDIT CUESheet Editor for CA RipTools 11.02.2016 16:14:03
REM DATE 1972
REM GENRE Classical
REM DISCID 660EE408
REM DISCNUMBER 5
REM TOTALDISCS 6
REM PUBLISHER DECCA
REM PUBNUMBER 4758478
REM COMMENT ExactAudioCopy v1.0b3
PERFORMER "Royal Concertgebouw Orchestra-Josef Alois Krips"
TITLE "CD5-Symphony no.39, 41"
COMPOSER "Wolfgang Amadeus Mozart"
FILE "CD5-Symphony no.39, 41.flac" WAVE
TRACK 01 AUDIO
PERFORMER "Josef Krips"
TITLE "Symphony No.39 in E flat, KV.543 I.Adagio – Allegro"
INDEX 00 00:00:00
INDEX 01 00:00:32
TRACK 02 AUDIO
PERFORMER "Josef Krips"
TITLE "Symphony No.39 in E flat, KV.543 II.Andante con moto"
INDEX 00 09:03:30
INDEX 01 09:03:32
TRACK 03 AUDIO
PERFORMER "Josef Krips"
TITLE "Symphony No.39 in E flat, KV.543 III.Menuetto (Allegretto)"
INDEX 00 17:17:30
INDEX 01 17:17:32
TRACK 04 AUDIO
PERFORMER "Josef Krips"
TITLE "Symphony No.39 in E flat, KV.543 IV.Finale (Allegro)"
INDEX 00 21:36:30
INDEX 01 21:36:32
TRACK 05 AUDIO
PERFORMER "Josef Krips"
TITLE "Symphony No.41 in C, KV.551 'Jupiter' I.Allegro vivace"
INDEX 00 26:01:30
INDEX 01 26:01:32
TRACK 06 AUDIO
PERFORMER "Josef Krips"
TITLE "Symphony No.41 in C, KV.551 'Jupiter' II.Andante cantabile"
INDEX 00 38:39:30
INDEX 01 38:39:32
TRACK 07 AUDIO
PERFORMER "Josef Krips"
TITLE "Symphony No.41 in C, KV.551 'Jupiter' III.Menuetto (Allegretto)"
INDEX 00 51:17:30
INDEX 01 51:17:32
TRACK 08 AUDIO
PERFORMER "Josef Krips"
TITLE "Symphony No.41 in C, KV.551 'Jupiter' IV.Molto allegro"
INDEX 00 56:42:30
INDEX 01 56:42:32

CD6 Содержание индексной карты (*.cue):

REM EDIT CUESheet Editor for CA RipTools 11.02.2016 16:14:51
REM DATE 1972
REM GENRE Classical
REM DISCID 7A0F0F0A
REM DISCNUMBER 6
REM TOTALDISCS 6
REM PUBLISHER DECCA
REM PUBNUMBER 4758479
REM COMMENT ExactAudioCopy v1.0b3
CATALOG 0028947584735
PERFORMER "Royal Concertgebouw Orchestra"
TITLE "CD6-Symphonies 40, 32, 38"
COMPOSER "Wolfgang Amadeus Mozart"
FILE "CD6-Symphonies 40, 32, 38.flac" WAVE
TRACK 01 AUDIO
PERFORMER "Josef Krips"
TITLE "Symphony No.40 in G minor, KV.550 I.Molto allegro"
INDEX 00 00:00:00
INDEX 01 00:00:32
TRACK 02 AUDIO
PERFORMER "Josef Krips"
TITLE "Symphony No.40 in G minor, KV.550 II.Andante"
INDEX 00 09:35:30
INDEX 01 09:35:32
TRACK 03 AUDIO
PERFORMER "Josef Krips"
TITLE "Symphony No.40 in G minor, KV.550 III.Menuetto (Allegretto)"
INDEX 00 17:10:30
INDEX 01 17:10:32
TRACK 04 AUDIO
PERFORMER "Josef Krips"
TITLE "Symphony No.40 in G minor, KV.550 IV.Finale (Allegro assai)"
INDEX 00 21:56:30
INDEX 01 21:56:32
TRACK 05 AUDIO
PERFORMER "Josef Krips"
TITLE "Symphony No.32 in G, KV.318 (Overture in G) I.Allegro spiritoso"
INDEX 00 29:14:30
INDEX 01 29:14:32
TRACK 06 AUDIO
PERFORMER "Josef Krips"
TITLE "Symphony No.32 in G, KV.318 (Overture in G) II.Andante"
INDEX 00 32:31:55
INDEX 01 32:31:57
TRACK 07 AUDIO
PERFORMER "Josef Krips"
TITLE "Symphony No.32 in G, KV.318 (Overture in G) III.Tempo I"
INDEX 00 35:08:25
INDEX 01 35:08:27
TRACK 08 AUDIO
PERFORMER "Josef Krips"
TITLE "Symphony No.38 in D, KV.504 'Prague' I.Adagio – Allegro"
INDEX 00 37:16:29
INDEX 01 37:16:32
TRACK 09 AUDIO
PERFORMER "Josef Krips"
TITLE "Symphony No.38 in D, KV.504 'Prague' II.Andante"
INDEX 00 50:19:30
INDEX 01 50:19:32
TRACK 10 AUDIO
PERFORMER "Josef Krips"
TITLE "Symphony No.38 in D, KV.504 'Prague' III.Finale (Presto)"
INDEX 00 58:03:30
INDEX 01 58:03:32

Лог проверки качества

CD1 Отчёт auCDtect Task manager:

-----------------------
[br]
DON'T MODIFY THIS FILE
[br]
-----------------------
[br]
PERFORMER: auCDtect Task Manager, ver. 1.6.0 RC1 build 1.6.0.1
Copyright (c) 2008-2010 y-soft. All rights reserved
http://y-soft.org
[br]
ANALYZER: auCDtect: CD records authenticity detector, version 0.8.2
Copyright (c) 2004 Oleg Berngardt. All rights reserved.
Copyright (c) 2004 Alexander Djourik. All rights reserved.
[br]
FILE: 1974 CD1-Symphony no.21-25.flac
Size: 336951159 Hash: B60E983A504F08B472B6ADC4AAC56D9F Accuracy: -m0
Conclusion: CDDA 100%
Signature: 2D08C50F77FF38F9F328E53DF69B76A69895A35A

CD2 Отчёт auCDtect Task manager:

-----------------------
[br]
DON'T MODIFY THIS FILE
[br]
-----------------------
[br]
PERFORMER: auCDtect Task Manager, ver. 1.6.0 RC1 build 1.6.0.1
Copyright (c) 2008-2010 y-soft. All rights reserved
http://y-soft.org
[br]
ANALYZER: auCDtect: CD records authenticity detector, version 0.8.2
Copyright (c) 2004 Oleg Berngardt. All rights reserved.
Copyright (c) 2004 Alexander Djourik. All rights reserved.
[br]
FILE: CD2-Symphony no.26-29.flac
Size: 325547988 Hash: 345C67B4BAD191DF52E41134839D61C8 Accuracy: -m0
Conclusion: CDDA 100%
Signature: A95AE996BA06DE8E324A988C72F0B9CE4E9BE790

CD3 Отчёт auCDtect Task manager:

-----------------------
[br]
DON'T MODIFY THIS FILE
[br]
-----------------------
[br]
PERFORMER: auCDtect Task Manager, ver. 1.6.0 RC1 build 1.6.0.1
Copyright (c) 2008-2010 y-soft. All rights reserved
http://y-soft.org
[br]
ANALYZER: auCDtect: CD records authenticity detector, version 0.8.2
Copyright (c) 2004 Oleg Berngardt. All rights reserved.
Copyright (c) 2004 Alexander Djourik. All rights reserved.
[br]
FILE: CD3-Symphony no.30, 33, 34.flac
Size: 303905466 Hash: C583490E7DC673D515DC8E3DE20770F2 Accuracy: -m0
Conclusion: CDDA 100%
Signature: C4AFE5241B4F2FB56114D79BCBE2F7A4D48F6508

CD4 Отчёт auCDtect Task manager:

-----------------------
[br]
DON'T MODIFY THIS FILE
[br]
-----------------------
[br]
PERFORMER: auCDtect Task Manager, ver. 1.6.0 RC1 build 1.6.0.1
Copyright (c) 2008-2010 y-soft. All rights reserved
http://y-soft.org
[br]
ANALYZER: auCDtect: CD records authenticity detector, version 0.8.2
Copyright (c) 2004 Oleg Berngardt. All rights reserved.
Copyright (c) 2004 Alexander Djourik. All rights reserved.
[br]
FILE: CD4-Symphony no.31, 25-36.flac
Size: 359840327 Hash: 9F8E56B8AEEC56D707A53C90CB6EC06B Accuracy: -m0
Conclusion: CDDA 100%
Signature: 75B9046B590A4FB016D631490D2D1B829E45FE29

CD5 Отчёт auCDtect Task manager:

-----------------------
[br]
DON'T MODIFY THIS FILE
[br]
-----------------------
[br]
PERFORMER: auCDtect Task Manager, ver. 1.6.0 RC1 build 1.6.0.1
Copyright (c) 2008-2010 y-soft. All rights reserved
http://y-soft.org
[br]
ANALYZER: auCDtect: CD records authenticity detector, version 0.8.2
Copyright (c) 2004 Oleg Berngardt. All rights reserved.
Copyright (c) 2004 Alexander Djourik. All rights reserved.
[br]
FILE: CD5-Symphony no.39, 41.flac
Size: 319367324 Hash: C4F5076412452EB505C41F5374083A47 Accuracy: -m0
Conclusion: CDDA 100%
Signature: 948C3BCF7AC51A9AB772195288AA96A46DC0EDAE

CD6 Отчёт auCDtect Task manager:

-----------------------
[br]
DON'T MODIFY THIS FILE
[br]
-----------------------
[br]
PERFORMER: auCDtect Task Manager, ver. 1.6.0 RC1 build 1.6.0.1
Copyright (c) 2008-2010 y-soft. All rights reserved
http://y-soft.org
[br]
ANALYZER: auCDtect: CD records authenticity detector, version 0.8.2
Copyright (c) 2004 Oleg Berngardt. All rights reserved.
Copyright (c) 2004 Alexander Djourik. All rights reserved.
[br]
FILE: CD6-Symphonies 40, 32, 38.flac
Size: 319526076 Hash: E99C0E923D8985BA3F13419A6D72D251 Accuracy: -m0
Conclusion: CDDA 100%
Signature: A57A8346D90BA7F861641FB9DB85B4F194D82E4D

Скриншот спектра частотCD1 Спектрограмма:

CD2 Спектрограмма:

CD3 Спектрограмма:

[/url]

CD4 Спектрограмма:

CD5 Спектрограмма:

CD6 Спектрограмма:

Дополнительная информация:Josef Alois Krips





Йозеф Алоиз Крипс (нем. Josef Alois Krips; 1902—1974) — австрийский скрипач и дирижёр.
Йозеф Алоиз Крипс родился 8 апреля 1902 года в Вене.
Учился в Венской академии музыки и сценического искусства у Ойзебиуса Мандышевского (теория музыки, композиция) и Феликса Вайнгартнера (дирижирование), в 1921—1924 гг. работал ассистентом последнего в Венской Народной опере. В 1926—1933 гг. возглавлял Баденскую придворную капеллу, затем вернулся в Вену в 1933 г. на должность постоянного дирижёра Народной оперы. С 1935 г. также преподавал в Венской академии изящных искусств. В 1920-30-е гг. сочетал дирижирование с выступлениями в качестве скрипача — в том числе в составе популярного струнного квартета под управлением Макса Штруба. После аншлюсса был вынужден покинуть Австрию, работал в Белграде с местным оркестром, затем до конца войны служил на пищевой фабрике.
После Второй мировой войны Крипс стал одним из немногих остававшихся в Европе австрийских и немецких дирижёров, кто ни в какой форме не сотрудничал с фашистским режимом и потому мог свободно выступать. Он стал первым послевоенным руководителем Венского филармонического оркестра и Зальцбургского фестиваля. В 1950—1954 гг. Крипс был главным дирижёром Лондонского симфонического оркестра, затем возглавлял Филармонический оркестр Баффало и в 1963—1970 гг. Симфонический оркестр Сан-Франциско, наконец, в 1970—1973 гг. — Венский симфонический оркестр.
Среди записей Крипса выделяется осуществлённая им в 1960 г. вместе с Лондонским симфоническим оркестром запись всех девяти симфоний Бетховена, получившая высокую оценку критики и публики и многократно переиздававшаяся в дальнейшем. Из оперных записей Крипса выделяются моцартовские «Дон Жуан» и особенно «Похищение из сераля».
В 1947 и 1971 году гастролировал в СССР с Венской государственной оперой.
Йозеф Крипс умер 13 октября 1974 года в Женеве, похоронен в Вене.



Показать сообщения:    

Текущее время: 10-Дек 11:50

Часовой пояс: UTC + 3


Вы не можете начинать темы
Вы не можете отвечать на сообщения
Вы не можете редактировать свои сообщения
Вы не можете удалять свои сообщения
Вы не можете голосовать в опросах
Вы не можете прикреплять файлы к сообщениям
Вы не можете скачивать файлы