Ветер, который качает вереск / The Wind That Shakes the Barley (Кен Лоуч / Ken Loach) [2006, Германия, Франция, Великобритания, Италия, Испания, Швейцария, Ирландия, Бельгия, драма, военный, история, DVDRip] AVO (Дольский)


Статистика раздачи [Обновить пиров]
Размер:  744 MB   |    Зарегистрирован:  8 месяцев 14 дней   |    Скачан:  0 раз

Полного источника не было: Никогда

 
   
 
 
 

[Цитировать]

Ветер, который качает вереск / The Wind That Shakes the Barley- Страна: Германия, Франция, Великобритания, Италия, Испания, Швейцария, Ирландия, Бельгия
Жанр: драма, военный, история
Год выпуска: 2006
Продолжительность: 02:01:38-Перевод: Авторский (одноголосый закадровый) Андрей Дольский
Cубтитры: нет-Режиссер: Кен Лоуч / Ken Loach
В ролях: Киллиан Мёрфи, Лиам Каннингэм, Падрейк Делейни, Орла Фицджералд, Майлс Хорган, Дэмиен Кирни, Роджер Аллам, Фрэнк Бурк, Мартин Люси, Эйдан О’Харе-Описание: Начало XX века. Ирландия охвачена волнениями. Рабочие и крестьяне ведут отчаянную борьбу за независимость с британскими частями, призванными подавить бунт в Ирландии. Чувство долга и любовь к родине побуждают Дамиена оставить успешную карьеру врача и вместе со своим братом Тедди вступить в жестокую схватку за свободу.
После первых побед повстанцев британские власти приходят к выводу, что кровопролитие пора прекратить. Но страну ждет новое испытание — гражданская война, когда родные братья, еще недавно сражавшиеся бок о бок, оказываются по разные стороны баррикад…-Сэмпл-Качество видео: DVDRip
Формат видео: AVI
Видео: 592x320 (1.85:1), 25 fps, XviD build 64 ~717 kbps avg, 0.15 bit/pixel
Аудио: 48 kHz, MPEG Layer 3, 2 ch, ~128.00 kbps avg

Доп. информация

За видеоряд спасибо Last Boy Scout.
За аудиодорожку с Дольским спасибо Mixa_12345_mixa.

MediaInfo

General
Complete name : E:\Downloads\Veresk.Dolsky.avi
Format : AVI
Format/Info : Audio Video Interleave
File size : 744 MiB
Duration : 2h 1mn
Overall bit rate : 855 Kbps
Movie name : Ветер, который качает вереск
Director : Last Boy Scout
Writing application : VirtualDubMod 1.5.10.2 (build 2540/release)
Writing library : VirtualDubMod build 2540/release
Copyright : rutracker.org 01.01.2012
Video
ID : 0
Format : MPEG-4 Visual
Format profile : Advanced Simple@L5
Format settings, BVOP : 1
Format settings, QPel : No
Format settings, GMC : No warppoints
Format settings, Matrix : Custom
Codec ID : XVID
Codec ID/Hint : XviD
Duration : 2h 1mn
Bit rate : 718 Kbps
Width : 592 pixels
Height : 320 pixels
Display aspect ratio : 1.85:1
Frame rate : 25.000 fps
Color space : YUV
Chroma subsampling : 4:2:0
Bit depth : 8 bits
Scan type : Progressive
Compression mode : Lossy
Bits/(Pixel*Frame) : 0.152
Stream size : 624 MiB (84%)
Writing library : XviD 64
Audio
ID : 1
Format : MPEG Audio
Format version : Version 1
Format profile : Layer 3
Mode : Joint stereo
Mode extension : MS Stereo
Codec ID : 55
Codec ID/Hint : MP3
Duration : 2h 1mn
Bit rate mode : Constant
Bit rate : 128 Kbps
Channel(s) : 2 channels
Sampling rate : 48.0 KHz
Compression mode : Lossy
Stream size : 111 MiB (15%)
Alignment : Aligned on interleaves
Interleave, duration : 40 ms (1.00 video frame)
Interleave, preload duration : 504 ms

Скриншот c названием фильма

Скриншоты

[teatrix.ru].t22965.torrent 
Торрент: Зарегистрирован [ 2016-03-21 00:35 ] · 7C5D5E7E09308BDFA69FC8B2BC1780F0840D2101

Скачать .torrent

Скачать

15 KB

Статус: проверено
Скачан: 0 раз
Размер: 744 MB
terms.php



Быстрый ответ

Имя:

      
Для отправки сообщений необходимо включить JavaScript
Показать сообщения:    

Текущее время: 04-Дек 02:57

Часовой пояс: UTC + 3


Вы можете начинать темы
Вы можете отвечать на сообщения
Вы не можете редактировать свои сообщения
Вы не можете удалять свои сообщения
Вы не можете голосовать в опросах
Вы не можете прикреплять файлы к сообщениям
Вы можете скачивать файлы