(Classical) Charles Ives - Symphonies Nos. 1 & 2 - Melbourne Symphony Orchestra, Andrew Davis - 2015, FLAC (image+.cue) lossless


 

[Цитировать]

Charles Ives - Symphonies Nos. 1 & 2 - Melbourne Symphony Orchestra, Andrew Davis
Жанр: Classical
Страна-производитель диска: UK
Год издания диска: 2015
Издатель (лейбл): Chandos Records
Номер по каталогу: CHSA 5152
Дата записи: 2014
Аудиокодек: FLAC
Тип рипа: image+.cue
Битрейт аудио: lossless
Продолжительность: 77:28
Источник: собственный рип
Наличие сканов в содержимом раздачи: да
Треклист:
Charles Ives (1874 – 1954)
[1]-[4] Symphony No. 1
[5]-[9] Symphony No. 2
for large orchestra
Исполнители:
Melbourne Symphony Orchestra
Sir Andrew Davis

Лог создания рипа

Exact Audio Copy V1.1 from 23. June 2015
EAC extraction logfile from 11. February 2016, 0:58
Melbourne Symphony Orchestra, Andrew Davis / Ives - Symphonies 1 and 2
Used drive : HL-DT-STDVDRAM GU70N Adapter: 1 ID: 0
Read mode : Secure
Utilize accurate stream : Yes
Defeat audio cache : Yes
Make use of C2 pointers : No
Read offset correction : 48
Overread into Lead-In and Lead-Out : No
Fill up missing offset samples with silence : Yes
Delete leading and trailing silent blocks : No
Null samples used in CRC calculations : Yes
Used interface : Native Win32 interface for Win NT & 2000
Used output format : User Defined Encoder
Selected bitrate : 128 kBit/s
Quality : High
Add ID3 tag : No
Command line compressor : C:\Program Files (x86)\Exact Audio Copy\Flac\flac.exe
Additional command line options : -V -8 -T "Date=%year%" -T "Genre=%genre%" %source%
TOC of the extracted CD
Track | Start | Length | Start sector | End sector
---------------------------------------------------------
1 | 0:00.00 | 13:16.00 | 0 | 59699
2 | 13:16.00 | 7:43.52 | 59700 | 94476
3 | 20:59.52 | 5:04.26 | 94477 | 117302
4 | 26:04.03 | 14:05.17 | 117303 | 180694
5 | 40:09.20 | 5:23.08 | 180695 | 204927
6 | 45:32.28 | 11:24.52 | 204928 | 256279
7 | 56:57.05 | 8:07.54 | 256280 | 292858
8 | 65:04.59 | 2:15.67 | 292859 | 303050
9 | 67:20.51 | 10:06.12 | 303051 | 348512
Range status and errors
Selected range
Filename C:\temp\CHSA_05152 - Ives - Symphonies Nos. 1 & 2\Ives - Symphonies 1 and 2.wav
Peak level 99.2 %
Extraction speed 2.3 X
Range quality 100.0 %
Test CRC 6772A095
Copy CRC 6772A095
Copy OK
No errors occurred
AccurateRip summary
Track 1 accurately ripped (confidence 3) [01403B6B] (AR v2)
Track 2 accurately ripped (confidence 3) [A63AFCB8] (AR v2)
Track 3 accurately ripped (confidence 3) [7C7CC987] (AR v2)
Track 4 accurately ripped (confidence 3) [C4267535] (AR v2)
Track 5 accurately ripped (confidence 3) [7B2F01B7] (AR v2)
Track 6 accurately ripped (confidence 3) [16C03213] (AR v2)
Track 7 accurately ripped (confidence 3) [7DDB0039] (AR v2)
Track 8 accurately ripped (confidence 3) [FF44A2C0] (AR v2)
Track 9 accurately ripped (confidence 3) [6242BD45] (AR v2)
All tracks accurately ripped
End of status report
==== Log checksum 8C3EE7B3314E0E726671E7D2E7F1F18AF90AE96A69B3B0770C9509A3484C150B ====



Показать сообщения:    

Текущее время: 09-Дек 22:26

Часовой пояс: UTC + 3


Вы не можете начинать темы
Вы не можете отвечать на сообщения
Вы не можете редактировать свои сообщения
Вы не можете удалять свои сообщения
Вы не можете голосовать в опросах
Вы не можете прикреплять файлы к сообщениям
Вы не можете скачивать файлы