[SACD-R][OF] Sakari Oramo, Royal Stockholm Philharmonic Orchestra - Carl Nielsen: Symphony 4 ”Det uudslukkelige” (The Inextinguishable) Op.29; Symphony 5 Op.50 - 2013 (Classical; Orchestral)


Статистика раздачи [Обновить пиров]
Размер:  3.2 GB   |    Зарегистрирован:  8 месяцев 15 дней   |    Скачан:  0 раз

Полного источника не было: Никогда

 
   
 
 
 

[Цитировать]

Sakari Oramo, Royal Stockholm Philharmonic Orchestra
Carl Nielsen: Symphony No. 4 ”Det uudslukkelige” (The Inextinguishable) Op.29;
Symphony No. 5 Op.50
-
Формат записи/Источник записи: [SACD-R][OF]
Наличие водяных знаков: Нет
Год издания/переиздания диска: 2013
Жанр: Classical; Orchestral
Издатель(лейбл): BIS Records
Продолжительность: 01:09:46
Наличие сканов в содержимом раздачи: Нет-Треклист:
Carl Nielsen (1865–1931)
Symphony No.4 ‘The Inextinguishable’, Op.29 / FS76 (1914–16)

1. I. Allegro – 11'34
2. II. Poco Allegretto – 5'21
3. III. Poco adagio quasi andante – 9'40
4. IV. Allegro 8'37
Symphony No.5, Op.50 / FS97 (1921–22)
5. I. Tempo giusto – 17'59
6. II. Allegro – Presto – Andante un poco tranquillo – Allegro 15'49-Royal Stockholm Philharmonic Orchestra, orchestra
Sakari Oramo, conductor-Контейнер: ISO (*.iso)
Тип рипа: image
Разрядность: 64(2,8 MHz/1 Bit)
Формат: DST64
Количество каналов: 5.0, 2.0
Доп. информация: BIS-2028 SACD
Release - Dec 2013
Recording type - PCM 24/96
http://sa-cd.net/showtitle/9178
http://www.bis.se/index.php?op=album&aID=BIS-2028

DR 14

foobar2000 1.3.8 / Замер динамического диапазона (DR) 1.1.1
Дата отчёта: 2016-02-13 21:25:03
--------------------------------------------------------------------------------
Анализ: Royal Stockholm Philharmonic Orchestra / Sakari Oramo / Nielsen - Symphonies Nos 4 & 5
--------------------------------------------------------------------------------
DR Пики RMS Продолжительность трека
--------------------------------------------------------------------------------
DR13 -5.96 дБ -27.40 дБ 11:37 01-Symphony No. 4: I. Allegro
DR13 -25.72 дБ -45.77 дБ 5:23 02-II. Poco Allegretto
DR14 -5.59 дБ -29.19 дБ 9:39 03-III. Poco adagio quasi andante
DR14 -3.79 дБ -25.40 дБ 8:48 04-IV. Allegro
DR16 -3.24 дБ -28.31 дБ 18:01 05-Symphony No. 5: I. Tempo giusto - Adagio
DR15 -4.18 дБ -28.52 дБ 16:19 06-II. Allegro - Presto - Andante un poco tranquillo - Allegro
--------------------------------------------------------------------------------
Количество треков: 6
Реальные значения DR: DR14
Частота: 2822400 Гц / Частота PCM: 88200 Гц
Каналов: 5
Разрядность: 24
Битрейт: 14112 кбит/с
Кодек: DST64
================================================================================
--------------------------------------------------------------------------------
Анализ: Royal Stockholm Philharmonic Orchestra / Sakari Oramo / Nielsen - Symphonies Nos 4 & 5
--------------------------------------------------------------------------------
DR Пики RMS Продолжительность трека
--------------------------------------------------------------------------------
DR13 -5.18 дБ -24.37 дБ 11:37 01-Symphony No. 4: I. Allegro
DR12 -23.64 дБ -43.10 дБ 5:23 02-II. Poco Allegretto
DR15 -4.53 дБ -26.19 дБ 9:39 03-III. Poco adagio quasi andante
DR14 -3.30 дБ -22.03 дБ 8:48 04-IV. Allegro
DR15 -3.24 дБ -25.79 дБ 18:01 05-Symphony No. 5: I. Tempo giusto - Adagio
DR14 -3.42 дБ -26.01 дБ 16:19 06-II. Allegro - Presto - Andante un poco tranquillo - Allegro
--------------------------------------------------------------------------------
Количество треков: 6
Реальные значения DR: DR14
Частота: 2822400 Гц / Частота PCM: 88200 Гц
Каналов: 2
Разрядность: 24
Битрейт: 5645 кбит/с
Кодек: DST64
================================================================================
Нормальные сканы есть в этой раздаче - CDDA FLAC lossless
------------------------------
[SACD-R][OF] Sakari Oramo, Royal Stockholm Philharmonic Orchestra - Carl Nielsen: Symphony No. 1 in G minor, Op. 7; Symphony No.3, ‘Sinfonia espansiva’, Op.27 - 2014 (Orchestral)
[SACD-R][OF]Sakari Oramo, Royal Stockholm Philharmonic Orchestra - Carl Nielsen: Symphonies 2 "De fire Temperamenter (The Four Temperaments)" & 6 "Sinfonia Semplice" - 2015
[SACD-R][OF] Sakari Oramo, Royal Stockholm Philharmonic Orchestra - Carl Nielsen: Symphony No. 1 in G minor, Op. 7; Symphony No.3, ‘Sinfonia espansiva’, Op.27 - 2014 (Orchestral)
[SACD-R][OF]Sakari Oramo, Royal Stockholm Philharmonic Orchestra - Carl Nielsen: Symphony 4 ”Det uudslukkelige” (The Inextinguishable) Op.29; Symphony 5 Op.50 - 2013
[teatrix.ru].t22969.torrent 
Торрент: Зарегистрирован [ 2016-03-21 00:35 ] · 010B95601C54F659D3E770BE9D9D49441CCCEF84

Скачать .torrent

Скачать

33 KB

Статус: проверено
Скачан: 0 раз
Размер: 3.2 GB
terms.php



Быстрый ответ

Имя:

      
Для отправки сообщений необходимо включить JavaScript
Показать сообщения:    

Текущее время: 05-Дек 23:40

Часовой пояс: UTC + 3


Вы можете начинать темы
Вы можете отвечать на сообщения
Вы не можете редактировать свои сообщения
Вы не можете удалять свои сообщения
Вы не можете голосовать в опросах
Вы не можете прикреплять файлы к сообщениям
Вы можете скачивать файлы