Убийцы (Марика Бейку, Александр Гордон, Андрей Тарковский) [1956, СССР, короткометражка, BDRemux 1080p] [Criterion Collection] Sub Eng + Original Rus


Статистика раздачи [Обновить пиров]
Размер:  1.9 GB   |    Зарегистрирован:  8 месяцев 16 дней   |    Скачан:  0 раз

Полного источника не было: Никогда

 
   
 
 
 

[Цитировать]

Убийцы
Страна: СССР
Жанр: короткометражка
Год выпуска: 1956
Продолжительность: 00:20:38
Перевод: Не требуется
Cубтитры: английские
Оригинальная аудиодорожка: русский-Режиссер: Марика Бейку, Александр Гордон, Андрей Тарковский
В ролях: Юлий Файт, Александр Гордон, Валентин Виноградов, Вадим Новиков, Юрий Дубровин, Андрей Тарковский, Василий Шукшин
Описание: По рассказу Эрнеста Хемингуэя.
Обычный вечер в маленьком городке. В бар заходят два подозрительных молодых человека. Они будут ждать Оле Андерсона, чтобы убить его…
IMDb || КиноПоиск-Тип релиза: BDRemux 1080p
Контейнер: MKV
Видео: MPEG-4 AVC Video, 1920x1080 at 23.976 fps, 13000 kbps
Аудио: Russian: 48 kHz, AC3, 1.0 ch, 192 kbps
Формат субтитров: softsub (SRT)
Сэмпл

MediaInfo

General
Unique ID : 246302216556980317587063685130174675295 (0xB94C14D82D637440ABCD5C058BF5395F)
Complete name : Убийцы.1956.Criterion.BDRemux.rutracker.mkv
Format : Matroska
Format version : Version 2
File size : 1.90 GiB
Duration : 20mn 38s
Overall bit rate mode : Variable
Overall bit rate : 13.2 Mbps
Movie name : Release for RuTracker
Writing application : mkvmerge v5.0.1 ('Es ist Sommer') built on Nov 6 2011 16:23:40
Writing library : libebml v1.2.2 + libmatroska v1.3.0
Video
ID : 1
Format : AVC
Format/Info : Advanced Video Codec
Format profile : High@L4.1
Format settings, CABAC : Yes
Format settings, ReFrames : 4 frames
Codec ID : V_MPEG4/ISO/AVC
Duration : 20mn 38s
Bit rate mode : Variable
Bit rate : 12.7 Mbps
Maximum bit rate : 37.0 Mbps
Width : 1 920 pixels
Height : 1 080 pixels
Display aspect ratio : 16:9
Frame rate mode : Constant
Frame rate : 23.976 fps
Color space : YUV
Chroma subsampling : 4:2:0
Bit depth : 8 bits
Scan type : Progressive
Bits/(Pixel*Frame) : 0.256
Stream size : 1.84 GiB (97%)
Title : Убийцы.1956.Criterion.BDRemux.rutracker
Language : Russian
Default : Yes
Forced : No
Audio
ID : 2
Format : AC-3
Format/Info : Audio Coding 3
Mode extension : CM (complete main)
Format settings, Endianness : Big
Codec ID : A_AC3
Duration : 20mn 38s
Bit rate mode : Constant
Bit rate : 192 Kbps
Channel(s) : 1 channel
Channel positions : Front: C
Sampling rate : 48.0 KHz
Bit depth : 16 bits
Compression mode : Lossy
Stream size : 28.3 MiB (1%)
Language : Russian
Default : Yes
Forced : No
Text
ID : 3
Format : UTF-8
Codec ID : S_TEXT/UTF8
Codec ID/Info : UTF-8 Plain Text
Language : English
Default : No
Forced : No

Скриншоты

[teatrix.ru].t22970.torrent 
Торрент: Зарегистрирован [ 2016-03-21 00:35 ] · DF76A3C729B4DB898219A4CC0074AF85D27796E8

Скачать .torrent

Скачать

19 KB

Статус: проверено
Скачан: 0 раз
Размер: 1.9 GB
terms.php



Быстрый ответ

Имя:

      
Для отправки сообщений необходимо включить JavaScript
Показать сообщения:    

Текущее время: 06-Дек 22:54

Часовой пояс: UTC + 3


Вы можете начинать темы
Вы можете отвечать на сообщения
Вы не можете редактировать свои сообщения
Вы не можете удалять свои сообщения
Вы не можете голосовать в опросах
Вы не можете прикреплять файлы к сообщениям
Вы можете скачивать файлы