(Orchestral) W.A.Mozart - Les petits riens | Konzert fur Flote und Harfe K.299 | »Eine kleine Nachtmusik« (Emmy Hurlimann • Willy Urfer • Hermann Scherchen) - 1994, FLAC (image+.cue) lossless


 

[Цитировать]

Hermann Scherchen dirige :
Le Petits Riens • Concerto pour flûte et harpe
Une petite musique de nuit
--- Жанр: Orchestral
Страна-производитель диска: France
Год издания диска: 1994
Издатель (лейбл): TAHRA
Дата записи: 1941/48/51
Аудиокодек: FLAC
Тип рипа: image+.cue
Битрейт аудио: lossless
Продолжительность: 58'21''
Источник: собственный рип
Наличие сканов в содержимом раздачи: да
Треклист:
[01] Le Petits Riens, ballet
[02] Konzert für Flöte und Harfe: I. Allegro
[03] II. Andantino
[04] III. Rondo
[05] »Eine kleine Nachtmusik«: I. Allegro
[06] II. Romance
[07] III. Menuet
[08] IV. Rondo
Исполнители:
Emmy Hürlimann - Harpe
Willy Urfer - Flöte
Orchestre Municipal de Winterthur [1]
»Studio-Orchester« de Radio-Beromünster [2-4]
Wiener Staatsopernorchester
Hermann Scherchen
-

Лог создания рипа

Exact Audio Copy V1.0 beta 4 from 7. December 2014
EAC extraction logfile from 18. August 2015, 0:16
Hermann Scherchen / Hermann Scherchen dirige W.A.Mozart
Used drive : TEAC CD-W540E Adapter: 1 ID: 1
Read mode : Secure
Utilize accurate stream : Yes
Defeat audio cache : Yes
Make use of C2 pointers : No
Read offset correction : 686
Overread into Lead-In and Lead-Out : No
Fill up missing offset samples with silence : Yes
Delete leading and trailing silent blocks : No
Null samples used in CRC calculations : Yes
Used interface : Native Win32 interface for Win NT & 2000
Used output format : User Defined Encoder
Selected bitrate : 1024 kBit/s
Quality : High
Add ID3 tag : No
Command line compressor : C:\Program Files (x86)\FLAC\flac.exe
Additional command line options : -T "COMMENT=rip by el coronel" -8 -V %source%
TOC of the extracted CD
Track | Start | Length | Start sector | End sector
---------------------------------------------------------
1 | 0:00.32 | 14:58.63 | 32 | 67444
2 | 14:59.20 | 10:50.55 | 67445 | 116249
3 | 25:50.00 | 9:02.20 | 116250 | 156919
4 | 34:52.20 | 10:03.37 | 156920 | 202181
5 | 44:55.57 | 4:23.35 | 202182 | 221941
6 | 49:19.17 | 3:55.05 | 221942 | 239571
7 | 53:14.22 | 2:02.05 | 239572 | 248726
8 | 55:16.27 | 3:05.05 | 248727 | 262606
Range status and errors
Selected range
Filename F:\Music\Scherchen conducts Mozart (Tahra, 1994)\CD.wav
Peak level 98.6 %
Extraction speed 5.0 X
Range quality 100.0 %
Test CRC EBF549F9
Copy CRC EBF549F9
Copy OK
No errors occurred
AccurateRip summary
Track 1 not present in database
Track 2 not present in database
Track 3 not present in database
Track 4 not present in database
Track 5 not present in database
Track 6 not present in database
Track 7 not present in database
Track 8 not present in database
None of the tracks are present in the AccurateRip database
End of status report
---- CUETools DB Plugin V2.1.4
[CTDB TOCID: zlZBX4O4HClsHq.JfBQTtyTRzkE-] disk not present in database
Submit result: zlZBX4O4HClsHq.JfBQTtyTRzkE- has been uploaded
==== Log checksum DD1537F3F676AFCB369D54FC3C0E593ACB485F4E62BACE0C45203A049594CEC1 ====

Содержание индексной карты (.CUE)

REM GENRE Classical
REM DATE 1994
REM DISCID 740DAD08
REM COMMENT "ExactAudioCopy v1.0b4"
CATALOG 0000000000000
PERFORMER "Hermann Scherchen"
TITLE "Hermann Scherchen dirige W.A.Mozart"
FILE "CD.flac" WAVE
TRACK 01 AUDIO
TITLE "Le Petits Riens, ballet"
PERFORMER "Orchestre Municipal de Winterthur - H.Scherchen"
INDEX 00 00:00:00
INDEX 01 00:00:32
TRACK 02 AUDIO
TITLE "Concerto pour Flute et Harpe, K.299: I. Allegro"
PERFORMER "E.Hurlimann, W.Urfer; Studio-Orchester de Radio-Beromunster - H.Scherchen"
INDEX 00 14:51:25
INDEX 01 14:59:20
TRACK 03 AUDIO
TITLE "II. Andantino"
PERFORMER "E.Hurlimann, W.Urfer; Studio-Orchester de Radio-Beromunster - H.Scherchen"
INDEX 00 25:49:72
INDEX 01 25:50:00
TRACK 04 AUDIO
TITLE "III. Rondo"
PERFORMER "E.Hurlimann, W.Urfer; Studio-Orchester de Radio-Beromunster - H.Scherchen"
INDEX 00 34:51:13
INDEX 01 34:52:20
TRACK 05 AUDIO
TITLE "Serenade No.13 'Eiene kleine Nachtmusik', K.525: I. Allegro"
PERFORMER "Wiener Staatsopernorchester - H.Scherchen"
INDEX 00 44:47:38
INDEX 01 44:55:57
TRACK 06 AUDIO
TITLE "II. Romance"
PERFORMER "Wiener Staatsopernorchester - H.Scherchen"
INDEX 00 49:16:38
INDEX 01 49:19:17
TRACK 07 AUDIO
TITLE "III. Menuet"
PERFORMER "Wiener Staatsopernorchester - H.Scherchen"
INDEX 00 53:13:20
INDEX 01 53:14:22
TRACK 08 AUDIO
TITLE "IV. Rondo"
PERFORMER "Wiener Staatsopernorchester - H.Scherchen"
INDEX 00 55:16:25
INDEX 01 55:16:27
-Доп. информация: одни из первых записей Германа Шерхена и один из первых дисков прославленного лейбла Tahra. Обратите внимание, качество звучания довольно посредственное.



Показать сообщения:    

Текущее время: 03-Дек 14:37

Часовой пояс: UTC + 3


Вы не можете начинать темы
Вы не можете отвечать на сообщения
Вы не можете редактировать свои сообщения
Вы не можете удалять свои сообщения
Вы не можете голосовать в опросах
Вы не можете прикреплять файлы к сообщениям
Вы не можете скачивать файлы