Джузеппе Верди - Трубадур / Verdi - Il Trovatore (Ludovic Tezier, Marcelo Alvarez, Hui He, Екатерина Семенчук / Ekaterina Semenchuk) (Daniele Callegari / Alex Olle) [2016, Opera, HDTV 1080i] (Multisub's)


 

[Цитировать]

Verdi - Il Trovatore
Джузеппе ВЕРДИ - ТРУБАДУР
_______________________________________________________
Год выпуска: 2016
Лейбл: FRA Cinema
Страна-производитель: France
Жанр: Opera
Продолжительность: 01:09:00 + 01:19:00 + 00:10:41 (bonus)
Продолжительность общая: 02:38:41
Язык: Итальянский (bonus - Французский)
Перевод: Субтитры
Субтитры: Eng, Fre, Ger, Ita, Swe
Режиссер: Alex Ollé
Исполнители:
* Il Conte di Luna - Ludovic Tézier
* Leonora - Hui He
* Azucena - Ekaterina Semenchuk
* Manrico - Marcelo Alvarez
* Ferrando - Roberto Tagliavini
* Ines - Marion Lebègue
* Ruiz - Oleksiy Palchykov
* Un vecchio zingaro - Constantin Ghircau
* Un messo - Cyrille Lovighi
Chorus & Orchestra Opéra national de Paris
Дирижер: Daniele Callegari
Качество видео: HDTV 1080i
Формат/Контейнер: TS
Видео кодек: H.264
Аудио кодек: AC3
Видео поток: 1920x1080 (16:9), 16.300 kbps, 25.000 fps.
Аудио поток: 448 kbps, 48 KHz, 16 bit, 6 ch

СкриншотыPart I

Part II

Intro

MediaInfoPart I

General
ID : 1 (0x1)
Complete name : Il Trovatore OPERA PARIS 02.11.2016 HDTV 1080i AC3 Multisubs OR MME\ 2 Part I.ts
Format : MPEG-TS
File size : 8.83 GiB
Duration : 1h 9mn
Overall bit rate mode : Variable
Overall bit rate : 18.1 Mbps
Video
ID : 256 (0x100)
Menu ID : 1 (0x1)
Format : AVC
Format/Info : Advanced Video Codec
Format profile : High@L4
Format settings, CABAC : Yes
Format settings, ReFrames : 3 frames
Codec ID : 27
Duration : 1h 9mn
Bit rate mode : Constant
Bit rate : 16.3 Mbps
Width : 1 920 pixels
Height : 1 080 pixels
Display aspect ratio : 16:9
Frame rate : 25.000 fps
Color space : YUV
Chroma subsampling : 4:2:0
Bit depth : 8 bits
Scan type : MBAFF
Scan order : Top Field First
Bits/(Pixel*Frame) : 0.315
Stream size : 8.18 GiB (93%)
Color range : Limited
Color primaries : BT.709
Transfer characteristics : BT.709
Matrix coefficients : BT.709
Audio
ID : 257 (0x101)
Menu ID : 1 (0x1)
Format : AC-3
Format/Info : Audio Coding 3
Mode extension : CM (complete main)
Format settings, Endianness : Big
Codec ID : 129
Duration : 1h 9mn
Bit rate mode : Constant
Bit rate : 448 Kbps
Channel(s) : 6 channels
Channel positions : Front: L C R, Side: L R, LFE
Sampling rate : 48.0 KHz
Compression mode : Lossy
Delay relative to video : -2ms
Stream size : 223 MiB (2%)
Menu
ID : 4096 (0x1000)
Menu ID : 1 (0x1)
Duration : 1h 9mn
List : 256 (0x100) (AVC) / 257 (0x101) (AC-3)
Service name : Service01
Service provider : FFmpeg
Service type : digital television

Part II

General
ID : 1 (0x1)
Complete name : Il Trovatore OPERA PARIS 02.11.2016 HDTV 1080i AC3 Multisubs OR MME\3 Part II.ts
Format : MPEG-TS
File size : 10.0 GiB
Duration : 1h 19mn
Overall bit rate mode : Variable
Overall bit rate : 18.1 Mbps
Video
ID : 256 (0x100)
Menu ID : 1 (0x1)
Format : AVC
Format/Info : Advanced Video Codec
Format profile : High@L4
Format settings, CABAC : Yes
Format settings, ReFrames : 3 frames
Codec ID : 27
Duration : 1h 19mn
Bit rate mode : Constant
Bit rate : 16.3 Mbps
Width : 1 920 pixels
Height : 1 080 pixels
Display aspect ratio : 16:9
Frame rate : 25.000 fps
Color space : YUV
Chroma subsampling : 4:2:0
Bit depth : 8 bits
Scan type : MBAFF
Scan order : Top Field First
Bits/(Pixel*Frame) : 0.315
Stream size : 9.30 GiB (93%)
Color range : Limited
Color primaries : BT.709
Transfer characteristics : BT.709
Matrix coefficients : BT.709
Audio
ID : 257 (0x101)
Menu ID : 1 (0x1)
Format : AC-3
Format/Info : Audio Coding 3
Mode extension : CM (complete main)
Format settings, Endianness : Big
Codec ID : 129
Duration : 1h 19mn
Bit rate mode : Constant
Bit rate : 448 Kbps
Channel(s) : 6 channels
Channel positions : Front: L C R, Side: L R, LFE
Sampling rate : 48.0 KHz
Compression mode : Lossy
Delay relative to video : -9ms
Stream size : 254 MiB (2%)
Menu
ID : 4096 (0x1000)
Menu ID : 1 (0x1)
Duration : 1h 19mn
List : 256 (0x100) (AVC) / 257 (0x101) (AC-3)
Service name : Service01
Service provider : FFmpeg
Service type : digital television

Intro

General
ID : 1 (0x1)
Complete name : Il Trovatore OPERA PARIS 02.11.2016 HDTV 1080i AC3 Multisubs OR MME\1 Intro.ts
Format : MPEG-TS
File size : 1.35 GiB
Duration : 10mn 41s
Overall bit rate mode : Variable
Overall bit rate : 18.1 Mbps
Video
ID : 256 (0x100)
Menu ID : 1 (0x1)
Format : AVC
Format/Info : Advanced Video Codec
Format profile : High@L4
Format settings, CABAC : Yes
Format settings, ReFrames : 3 frames
Codec ID : 27
Duration : 10mn 41s
Bit rate mode : Constant
Bit rate : 16.3 Mbps
Width : 1 920 pixels
Height : 1 080 pixels
Display aspect ratio : 16:9
Frame rate : 25.000 fps
Color space : YUV
Chroma subsampling : 4:2:0
Bit depth : 8 bits
Scan type : MBAFF
Scan order : Top Field First
Bits/(Pixel*Frame) : 0.315
Stream size : 1.25 GiB (93%)
Color range : Limited
Color primaries : BT.709
Transfer characteristics : BT.709
Matrix coefficients : BT.709
Audio
ID : 257 (0x101)
Menu ID : 1 (0x1)
Format : AC-3
Format/Info : Audio Coding 3
Mode extension : CM (complete main)
Format settings, Endianness : Big
Codec ID : 129
Duration : 10mn 41s
Bit rate mode : Constant
Bit rate : 448 Kbps
Channel(s) : 6 channels
Channel positions : Front: L C R, Side: L R, LFE
Sampling rate : 48.0 KHz
Compression mode : Lossy
Delay relative to video : -2ms
Stream size : 34.3 MiB (2%)
Menu
ID : 4096 (0x1000)
Menu ID : 1 (0x1)
Duration : 10mn 41s
List : 256 (0x100) (AVC) / 257 (0x101) (AC-3)
Service name : Service01
Service provider : FFmpeg
Service type : digital television
WITH THANKS TO THE ORIGINAL UPLOADER : ginofamussa



Показать сообщения:    

Текущее время: 09-Дек 14:41

Часовой пояс: UTC + 3


Вы не можете начинать темы
Вы не можете отвечать на сообщения
Вы не можете редактировать свои сообщения
Вы не можете удалять свои сообщения
Вы не можете голосовать в опросах
Вы не можете прикреплять файлы к сообщениям
Вы не можете скачивать файлы