(Classical/Choral) Beethoven · Messe C-Dur/Mozart · Kronungsmesse (Karl Richter; Munchener Bach-Chor, Munchener Bach-Orchester, Janowitz/Igor Markevitch; Choeur Elisabeth Brasseur, Orchestre Lamoureux, Stader) - 1990, FLAC (image+.cue) lossless


Статистика раздачи [Обновить пиров]
Размер:  320 MB   |    Зарегистрирован:  8 месяцев 15 дней   |    Скачан:  0 раз

Полного источника не было: Никогда

 
   
 
 
 

[Цитировать]

Karl Richter, Igor Markevitch - Beethoven · Messe C-Dur / Mozart · Krönungsmesse
-Жанр: Classical / Choral
Страна-производитель диска: West Germany
Год издания диска: 1990
Издатель (лейбл): Polydor International GmbH
Номер по каталогу: 429 510-2
Дата записи: 1960 (Mozart)/1970
Аудиокодек: FLAC
Тип рипа: image+.cue
Битрейт аудио: lossless
Продолжительность: 01:13:02
Источник: собственный рип
Наличие сканов в содержимом раздачи: нет-

Треклист и исполнители

Ludwig Van Beethoven
Messe C-Dur op. 86

01 - I. Kyrie (4:17)
02 - II. Gloria (10:33)
03 - III. Credo (11:02)
04 - IV. Sanctus (12:15)
05 - V. Agnus Dei (8:24)
Исполнители:
Gundula Janowitz, Soprano
Julia Hamari, Contralto
Horst R. Laubenthal, Tenor
Ernst Gerold Schramm, Bass
Organ: Elmar Schloter
Münchener Bach-Chor
Münchener Bach-Orchester
Karl Richter-Wolfgang Amadeus Mozart
Messe C-Dur KV 317 "Krönungsmesse"

06 - I. Kyrie (3:38)
07 - II. Gloria (4:04)
08 - III. Credo (6:53)
09 - IV. Sanctus (2:02)
10 - V. Benedictus (3:20)
11 - VI. Agnus Dei (6:34)
Исполнители:
Maria Stader, Soprano
Oralia Dominguez, Contralto
Ernst Haefliger, Tenor
Michel Roux, Bass
Choeur Elisabeth Brasseur
Orchestre Lamoureux, Paris
Igor Markevitch
-

Лог создания рипа

Exact Audio Copy V1.1 from 23. June 2015
EAC extraction logfile from 13. February 2016, 22:20
Karl Richter, Igor Markevitch / Mass in C major / Coronation Mass
Used drive : PLEXTOR DVDR PX-L611U Adapter: 1 ID: 1
Read mode : Secure
Utilize accurate stream : Yes
Defeat audio cache : Yes
Make use of C2 pointers : No
Read offset correction : 6
Overread into Lead-In and Lead-Out : No
Fill up missing offset samples with silence : Yes
Delete leading and trailing silent blocks : No
Null samples used in CRC calculations : Yes
Used interface : Native Win32 interface for Win NT & 2000
Used output format : User Defined Encoder
Selected bitrate : 896 kBit/s
Quality : High
Add ID3 tag : No
Command line compressor : C:\flac\win64\flac.exe
Additional command line options : -V -8 -T "Date=%year%" -T "Genre=%genre%" %source%
TOC of the extracted CD
Track | Start | Length | Start sector | End sector
---------------------------------------------------------
1 | 0:00.33 | 4:16.50 | 33 | 19282
2 | 4:17.08 | 10:33.00 | 19283 | 66757
3 | 14:50.08 | 11:01.50 | 66758 | 116382
4 | 25:51.58 | 12:15.12 | 116383 | 171519
5 | 38:06.70 | 8:24.13 | 171520 | 209332
6 | 46:31.08 | 3:38.00 | 209333 | 225682
7 | 50:09.08 | 4:04.25 | 225683 | 244007
8 | 54:13.33 | 6:53.00 | 244008 | 274982
9 | 61:06.33 | 2:02.25 | 274983 | 284157
10 | 63:08.58 | 3:19.50 | 284158 | 299132
11 | 66:28.33 | 6:34.00 | 299133 | 328682
Range status and errors
Selected range
Filename C:\Музыка\test\Karl Richter, Igor Markevitch - Mass in C major , Coronation Mass.wav
Peak level 96.6 %
Extraction speed 3.4 X
Range quality 100.0 %
Test CRC 2B808CAB
Copy CRC 2B808CAB
Copy OK
No errors occurred
AccurateRip summary
Track 1 accurately ripped (confidence 6) [3E936E74] (AR v2)
Track 2 accurately ripped (confidence 6) [47047E5C] (AR v2)
Track 3 accurately ripped (confidence 6) [028454B6] (AR v2)
Track 4 accurately ripped (confidence 6) [C2DFDFA2] (AR v2)
Track 5 accurately ripped (confidence 6) [6C16C1AE] (AR v2)
Track 6 accurately ripped (confidence 6) [19DD9A23] (AR v2)
Track 7 accurately ripped (confidence 6) [18B81971] (AR v2)
Track 8 accurately ripped (confidence 6) [B80B03F2] (AR v2)
Track 9 accurately ripped (confidence 6) [F5A25641] (AR v2)
Track 10 accurately ripped (confidence 6) [8FE74286] (AR v2)
Track 11 accurately ripped (confidence 6) [F745E0A4] (AR v2)
All tracks accurately ripped
End of status report
==== Log checksum DE380F8016A85AADB95306190DCEFCD4395B78DDC913BC998BA7E707D0E00B53 ====

Содержание индексной карты (.CUE)

REM GENRE Choral
REM DATE 1990
REM DISCID AF111E0B
REM COMMENT ExactAudioCopy v1.1
PERFORMER "Karl Richter, Igor Markevitch"
TITLE "Beethoven · Messe C-Dur / Mozart · Kronungsmesse"
FILE "Karl Richter, Igor Markevitch - Mass in C major , Coronation Mass.flac" WAVE
TRACK 01 AUDIO
TITLE "Mass in C major, Op. 86: I. Kyrie"
INDEX 00 00:00:00
INDEX 01 00:00:33
TRACK 02 AUDIO
TITLE "Mass in C major, Op. 86: II. Gloria"
INDEX 00 04:15:08
INDEX 01 04:17:08
TRACK 03 AUDIO
TITLE "Mass in C major, Op. 86: III. Credo"
INDEX 00 14:46:08
INDEX 01 14:50:08
TRACK 04 AUDIO
TITLE "Mass in C major, Op. 86: IV. Sanctus"
INDEX 00 25:48:58
INDEX 01 25:51:58
TRACK 05 AUDIO
TITLE "Mass in C major, Op. 86: V. Agnus Dei"
INDEX 00 38:03:70
INDEX 01 38:06:70
TRACK 06 AUDIO
TITLE "Mass in C major, 'Coronation' Mass KV 317: I. Kyrie"
INDEX 00 46:20:08
INDEX 01 46:31:08
TRACK 07 AUDIO
TITLE "Mass in C major, 'Coronation' Mass KV 317: II. Gloria"
INDEX 00 50:08:08
INDEX 01 50:09:08
TRACK 08 AUDIO
TITLE "Mass in C major, 'Coronation' Mass KV 317: III. Credo"
INDEX 01 54:13:33
TRACK 09 AUDIO
TITLE "Mass in C major, 'Coronation' Mass KV 317: IV. Sanctus"
INDEX 00 61:05:33
INDEX 01 61:06:33
TRACK 10 AUDIO
TITLE "Mass in C major, 'Coronation' Mass KV 317: V. Benedictus"
INDEX 00 63:07:58
INDEX 01 63:08:58
TRACK 11 AUDIO
TITLE "Mass in C major, 'Coronation' Mass KV 317: VI. Agnus Dei"
INDEX 00 66:27:58
INDEX 01 66:28:33

Лог проверки качества

foobar2000 1.3.9 / Dynamic Range Meter 1.1.1
log date: 2016-02-13 22:38:13
--------------------------------------------------------------------------------
Analyzed: Karl Richter, Igor Markevitch / Beethoven · Messe C-Dur / Mozart · Kronungsmesse
--------------------------------------------------------------------------------
DR Peak RMS Duration Track
--------------------------------------------------------------------------------
DR12 -1.20 dB -20.06 dB 4:17 01-Mass in C major, Op. 86: I. Kyrie
DR13 -0.62 dB -18.43 dB 10:33 02-Mass in C major, Op. 86: II. Gloria
DR13 -1.02 dB -18.83 dB 11:02 03-Mass in C major, Op. 86: III. Credo
DR14 -0.29 dB -20.66 dB 12:15 04-Mass in C major, Op. 86: IV. Sanctus
DR13 -2.92 dB -22.21 dB 8:24 05-Mass in C major, Op. 86: V. Agnus Dei
DR11 -3.39 dB -20.88 dB 3:38 06-Mass in C major, 'Coronation' Mass KV 317: I. Kyrie
DR11 -1.87 dB -19.03 dB 4:04 07-Mass in C major, 'Coronation' Mass KV 317: II. Gloria
DR12 -2.43 dB -19.39 dB 6:53 08-Mass in C major, 'Coronation' Mass KV 317: III. Credo
DR10 -2.67 dB -15.73 dB 2:02 09-Mass in C major, 'Coronation' Mass KV 317: IV. Sanctus
DR12 -3.30 dB -22.72 dB 3:20 10-Mass in C major, 'Coronation' Mass KV 317: V. Benedictus
DR12 -3.87 dB -21.84 dB 6:34 11-Mass in C major, 'Coronation' Mass KV 317: VI. Agnus Dei
--------------------------------------------------------------------------------
Number of tracks: 11
Official DR value: DR12
Samplerate: 44100 Hz
Channels: 2
Bits per sample: 16
Bitrate: 609 kbps
Codec: FLAC
================================================================================

Скриншот спектра частот


[teatrix.ru].t22973.torrent 
Торрент: Зарегистрирован [ 2016-03-21 00:35 ] · F139B15A278A665B4145C4E896BC26D454A55A92

Скачать .torrent

Скачать

13 KB

Статус: проверено
Скачан: 0 раз
Размер: 320 MB
terms.php



Быстрый ответ

Имя:

      
Для отправки сообщений необходимо включить JavaScript
Показать сообщения:    

Текущее время: 05-Дек 17:33

Часовой пояс: UTC + 3


Вы можете начинать темы
Вы можете отвечать на сообщения
Вы не можете редактировать свои сообщения
Вы не можете удалять свои сообщения
Вы не можете голосовать в опросах
Вы не можете прикреплять файлы к сообщениям
Вы можете скачивать файлы