(Classical) Mozart - Complete Sonatas for Keyboard and Violin - Rachel Podger, Gary Cooper - 2014, FLAC (image+.cue) lossless


 

[Цитировать]

Mozart - Complete Sonatas for Keyboard and Violin - Rachel Podger, Gary Cooper
Жанр: Classical
Страна-производитель диска: Holland
Год издания диска: 2014
Издатель (лейбл): Channel Classics
Номер по каталогу: CCS BOX 6414
Дата записи: 2004-2009
Аудиокодек: FLAC
Тип рипа: image+.cue
Битрейт аудио: lossless
Продолжительность: 9:22:46
Источник: собственный рип
Наличие сканов в содержимом раздачи: да
Треклист:
Wolfgang Amadeus Mozart
Complete Sonatas for Keyboard and Violin

CD1

[1]-[3] Sonata in G Major KV 379
[4]-[7] Sonata in C Major KV 6
[8]-[10] Sonata in F Major KV 547
[11]-[13] Sonata in B flat Major KV 378

CD2

[1]-[2] Sonata in C Major KV 303 (293c)
[3]-[5] Sonata in D Major KV 7 (1763-64)
[6]-[7] Sonata in G Major KV 301 (293a)
[8]-[9] Sonata in F Major KV 30 (1766)
[10]-[12] Sonata in E flat Major KV 481

CD3

[1]-[4] Sonata in Bb, KV 454
[5]-[6] Sonata in C, KV 28
[7]-[8] Andante & Fugue in a, KV 402 (385e)
Completed by Maximilian Stadler
[9]-[10] Andante & Allegretto in C, KV 404 (385d)
[11]-[13] Sonata in Bb, KV 8
[14]-[16] Sonata in Eb, KV 380 (374f)

CD4

[1]-[2] Sonata in Eb, K.302 (293b)
[3]-[5] Sonata in G, K.9
[6]-[7] Sonata in e minor, K.304 (300c)
[8]-[9] Sonata in D, K.29
[10]-[12] Sonata in A, K.526

CD5

[1]-[2] Sonata in A, KV 305
[3]-[5] Sonata in C, KV 403 (385c)
[6]-[7] Sonata in Bb, KV 31
[8]-[10] Sonata in D, KV 306

CD6

[1]-[3] Sonata in F major, KV376 (374d)
[4]-[6] Sonata in C major, KV296
[7]-[8] Sonata in G major, KV27
[9]-[11] Sonata in F major, KV377 (374e)

CD7

[1] Allegro in B flat major, KV 372
[from an incomplete Sonata, first movement, completed by Abbé Maximilian Stadler]
[2]-[8] 6 Variations in G minor,
‘Hélas, j’ai perdu mon amant’, KV 374b
[9]-[11] Sonata in E Flat major, KV 26
[12] Fantasia in C minor for Piano, KV 396
[after a fragment of a work for Violin & Piano by Mozart,
composed by Stadler]
[13]-[25] 12 Variations in G major,‘La Bergère Célimène’, KV 374a

CD8

London Sonatas, 1764
[1]-[3] Sonata in B Flat Major, KV 10
[4]-[6] Sonata in G Major, KV 11
[7]-[8] Sonata in A Major, KV 12
[9]-[11] Sonata in F Major, KV 13
[12]-[14] Sonata in C Major, KV 14
[15]-[16] Sonata in B Flat Major, KV 15
Исполнители:
Gary Cooper fortepiano
Rachel Podger violin

Лог создания рипа: CD1

Exact Audio Copy V1.0 beta 3 from 29. August 2011
EAC extraction logfile from 9. December 2014, 23:24
Rachel Podger, Gary Cooper / Mozart - Complete Sonatas for Keyboard and Violin - CD1
Used drive : HL-DT-STDVDRAM GU70N Adapter: 0 ID: 0
Read mode : Secure
Utilize accurate stream : Yes
Defeat audio cache : Yes
Make use of C2 pointers : No
Read offset correction : 48
Overread into Lead-In and Lead-Out : No
Fill up missing offset samples with silence : Yes
Delete leading and trailing silent blocks : No
Null samples used in CRC calculations : Yes
Used interface : Native Win32 interface for Win NT & 2000
Used output format : User Defined Encoder
Selected bitrate : 128 kBit/s
Quality : High
Add ID3 tag : No
Command line compressor : C:\Program Files (x86)\Exact Audio Copy\Flac\flac.exe
Additional command line options : -V -8 -T "Date=%year%" -T "Genre=%genre%" %source%
TOC of the extracted CD
Track | Start | Length | Start sector | End sector
---------------------------------------------------------
1 | 0:00.00 | 5:55.65 | 0 | 26689
2 | 5:55.65 | 5:13.70 | 26690 | 50234
3 | 11:09.60 | 9:37.00 | 50235 | 93509
4 | 20:46.60 | 4:51.27 | 93510 | 115361
5 | 25:38.12 | 3:54.43 | 115362 | 132954
6 | 29:32.55 | 2:10.07 | 132955 | 142711
7 | 31:42.62 | 3:37.38 | 142712 | 159024
8 | 35:20.25 | 5:07.00 | 159025 | 182049
9 | 40:27.25 | 8:58.07 | 182050 | 222406
10 | 49:25.32 | 7:37.45 | 222407 | 256726
11 | 57:03.02 | 8:50.18 | 256727 | 296494
12 | 65:53.20 | 6:37.37 | 296495 | 326306
13 | 72:30.57 | 4:25.55 | 326307 | 346236
Range status and errors
Selected range
Filename C:\temp\CCS BOX 6414 Mozart - Complete Sonatas for Keyboard and Violin (Podger, Cooper)\CD1\Mozart - Complete Sonatas for Keyboard and Violin - CD1.wav
Peak level 76.7 %
Extraction speed 2.3 X
Range quality 100.0 %
Test CRC CC2F274A
Copy CRC CC2F274A
Copy OK
No errors occurred
AccurateRip summary
Track 1 not present in database
Track 2 not present in database
Track 3 not present in database
Track 4 not present in database
Track 5 not present in database
Track 6 not present in database
Track 7 not present in database
Track 8 not present in database
Track 9 not present in database
Track 10 not present in database
Track 11 not present in database
Track 12 not present in database
Track 13 not present in database
None of the tracks are present in the AccurateRip database
End of status report
==== Log checksum 2BAE28915101BEFB8E29AC932CA0D01C7E0A01F6FF5B707D49B4C3E8C8E11C74 ====

Лог создания рипа: CD2

Exact Audio Copy V1.0 beta 3 from 29. August 2011
EAC extraction logfile from 10. December 2014, 1:39
Rachel Podger, Gary Cooper / Mozart - Complete Sonatas for Keyboard and Violin - CD2
Used drive : HL-DT-STDVDRAM GU70N Adapter: 0 ID: 0
Read mode : Secure
Utilize accurate stream : Yes
Defeat audio cache : Yes
Make use of C2 pointers : No
Read offset correction : 48
Overread into Lead-In and Lead-Out : No
Fill up missing offset samples with silence : Yes
Delete leading and trailing silent blocks : No
Null samples used in CRC calculations : Yes
Used interface : Native Win32 interface for Win NT & 2000
Used output format : User Defined Encoder
Selected bitrate : 128 kBit/s
Quality : High
Add ID3 tag : No
Command line compressor : C:\Program Files (x86)\Exact Audio Copy\Flac\flac.exe
Additional command line options : -V -8 -T "Date=%year%" -T "Genre=%genre%" %source%
TOC of the extracted CD
Track | Start | Length | Start sector | End sector
---------------------------------------------------------
1 | 0:00.00 | 5:15.26 | 0 | 23650
2 | 5:15.26 | 5:53.39 | 23651 | 50164
3 | 11:08.65 | 4:46.39 | 50165 | 71653
4 | 15:55.29 | 6:27.12 | 71654 | 100690
5 | 22:22.41 | 2:54.21 | 100691 | 113761
6 | 25:16.62 | 8:16.36 | 113762 | 150997
7 | 33:33.23 | 5:42.33 | 150998 | 176680
8 | 39:15.56 | 7:21.06 | 176681 | 209761
9 | 46:36.62 | 3:03.45 | 209762 | 223531
10 | 49:40.32 | 7:02.48 | 223532 | 255229
11 | 56:43.05 | 8:49.24 | 255230 | 294928
12 | 65:32.29 | 7:51.60 | 294929 | 330313
Range status and errors
Selected range
Filename C:\temp\CCS BOX 6414 Mozart - Complete Sonatas for Keyboard and Violin (Podger, Cooper)\CD2\Mozart - Complete Sonatas for Keyboard and Violin - CD2.wav
Peak level 100.0 %
Extraction speed 2.2 X
Range quality 100.0 %
Test CRC 7780F60B
Copy CRC 7780F60B
Copy OK
No errors occurred
AccurateRip summary
Track 1 cannot be verified as accurate (confidence 24) [15779046], AccurateRip returned [90FF9BC5] (AR v2)
Track 2 cannot be verified as accurate (confidence 24) [51C669C8], AccurateRip returned [F19D988B] (AR v2)
Track 3 cannot be verified as accurate (confidence 24) [6BDA4262], AccurateRip returned [1CFFDAE0] (AR v2)
Track 4 cannot be verified as accurate (confidence 24) [2EA6EDEC], AccurateRip returned [94057D1C] (AR v2)
Track 5 cannot be verified as accurate (confidence 24) [44382683], AccurateRip returned [B4FE9090] (AR v2)
Track 6 cannot be verified as accurate (confidence 24) [EFB5CAA8], AccurateRip returned [3A4258F9] (AR v2)
Track 7 cannot be verified as accurate (confidence 24) [A225970A], AccurateRip returned [66628FF9] (AR v2)
Track 8 cannot be verified as accurate (confidence 24) [AF503B20], AccurateRip returned [35AA8800] (AR v2)
Track 9 cannot be verified as accurate (confidence 24) [541191BC], AccurateRip returned [EBD2D14E] (AR v2)
Track 10 cannot be verified as accurate (confidence 24) [1921829F], AccurateRip returned [F8E82E9A] (AR v2)
Track 11 cannot be verified as accurate (confidence 24) [184184EC], AccurateRip returned [C04DD9D3] (AR v2)
Track 12 cannot be verified as accurate (confidence 24) [BAA3CE8A], AccurateRip returned [0C179DB1] (AR v2)
No tracks could be verified as accurate
You may have a different pressing from the one(s) in the database
End of status report
==== Log checksum 8E04413FB8CE7CD283BA92A36CBB958EFCC45DC064BA95F21778936E867E21F8 ====

Лог создания рипа: CD3

Exact Audio Copy V1.0 beta 3 from 29. August 2011
EAC extraction logfile from 10. December 2014, 2:53
Rachel Podger, Gary Cooper / Mozart - Complete Sonatas for Keyboard and Violin - CD3
Used drive : HL-DT-STDVDRAM GU70N Adapter: 0 ID: 0
Read mode : Secure
Utilize accurate stream : Yes
Defeat audio cache : Yes
Make use of C2 pointers : No
Read offset correction : 48
Overread into Lead-In and Lead-Out : No
Fill up missing offset samples with silence : Yes
Delete leading and trailing silent blocks : No
Null samples used in CRC calculations : Yes
Used interface : Native Win32 interface for Win NT & 2000
Used output format : User Defined Encoder
Selected bitrate : 128 kBit/s
Quality : High
Add ID3 tag : No
Command line compressor : C:\Program Files (x86)\Exact Audio Copy\Flac\flac.exe
Additional command line options : -V -8 -T "Date=%year%" -T "Genre=%genre%" %source%
TOC of the extracted CD
Track | Start | Length | Start sector | End sector
---------------------------------------------------------
1 | 0:00.00 | 1:45.68 | 0 | 7942
2 | 1:45.68 | 5:45.27 | 7943 | 33844
3 | 7:31.20 | 7:57.35 | 33845 | 69654
4 | 15:28.55 | 6:35.55 | 69655 | 99334
5 | 22:04.35 | 3:50.72 | 99335 | 116656
6 | 25:55.32 | 2:12.09 | 116657 | 126565
7 | 28:07.41 | 7:39.54 | 126566 | 161044
8 | 35:47.20 | 3:51.33 | 161045 | 178402
9 | 39:38.53 | 2:22.51 | 178403 | 189103
10 | 42:01.29 | 1:24.63 | 189104 | 195466
11 | 43:26.17 | 4:49.63 | 195467 | 217204
12 | 48:16.05 | 4:14.21 | 217205 | 236275
13 | 52:30.26 | 3:16.00 | 236276 | 250975
14 | 55:46.26 | 6:35.18 | 250976 | 280618
15 | 62:21.44 | 11:23.00 | 280619 | 331843
16 | 73:44.44 | 4:24.30 | 331844 | 351673
Range status and errors
Selected range
Filename C:\temp\CCS BOX 6414 Mozart - Complete Sonatas for Keyboard and Violin (Podger, Cooper)\CD3\Mozart - Complete Sonatas for Keyboard and Violin - CD3.wav
Peak level 100.0 %
Extraction speed 2.3 X
Range quality 100.0 %
Test CRC 2A8535C8
Copy CRC 2A8535C8
Copy OK
No errors occurred
AccurateRip summary
Track 1 accurately ripped (confidence 27) [EB91FF60] (AR v2)
Track 2 accurately ripped (confidence 27) [F4C08A7E] (AR v2)
Track 3 accurately ripped (confidence 27) [B616D4E8] (AR v2)
Track 4 accurately ripped (confidence 27) [A4130122] (AR v2)
Track 5 accurately ripped (confidence 27) [F9A37F12] (AR v2)
Track 6 accurately ripped (confidence 27) [8A30DE94] (AR v2)
Track 7 accurately ripped (confidence 27) [963771FC] (AR v2)
Track 8 accurately ripped (confidence 27) [2476579D] (AR v2)
Track 9 accurately ripped (confidence 27) [95F787DD] (AR v2)
Track 10 accurately ripped (confidence 27) [2512882C] (AR v2)
Track 11 accurately ripped (confidence 27) [254C6DB6] (AR v2)
Track 12 accurately ripped (confidence 27) [D0E8D29F] (AR v2)
Track 13 accurately ripped (confidence 27) [B5F56D97] (AR v2)
Track 14 accurately ripped (confidence 27) [EB4AF1F8] (AR v2)
Track 15 accurately ripped (confidence 27) [ED0C711C] (AR v2)
Track 16 accurately ripped (confidence 26) [B72FEC4A] (AR v2)
All tracks accurately ripped
End of status report
==== Log checksum 38645C5310F26967C056033620930066536D090529DF88FE6DD1F546524C0523 ====

Лог создания рипа: CD4

Exact Audio Copy V1.0 beta 3 from 29. August 2011
EAC extraction logfile from 7. January 2015, 1:15
Rachel Podger, Gary Cooper / Mozart - Complete Sonatas for Keyboard and Violin - CD4
Used drive : HL-DT-STDVDRAM GU70N Adapter: 0 ID: 0
Read mode : Secure
Utilize accurate stream : Yes
Defeat audio cache : Yes
Make use of C2 pointers : No
Read offset correction : 48
Overread into Lead-In and Lead-Out : No
Fill up missing offset samples with silence : Yes
Delete leading and trailing silent blocks : No
Null samples used in CRC calculations : Yes
Used interface : Native Win32 interface for Win NT & 2000
Used output format : User Defined Encoder
Selected bitrate : 128 kBit/s
Quality : High
Add ID3 tag : No
Command line compressor : C:\Program Files (x86)\Exact Audio Copy\Flac\flac.exe
Additional command line options : -V -8 -T "Date=%year%" -T "Genre=%genre%" %source%
TOC of the extracted CD
Track | Start | Length | Start sector | End sector
---------------------------------------------------------
1 | 0:00.00 | 7:52.24 | 0 | 35423
2 | 7:52.24 | 6:46.32 | 35424 | 65905
3 | 14:38.56 | 5:55.26 | 65906 | 92556
4 | 20:34.07 | 2:40.25 | 92557 | 104581
5 | 23:14.32 | 4:42.57 | 104582 | 125788
6 | 27:57.14 | 9:35.08 | 125789 | 168921
7 | 37:32.22 | 5:36.33 | 168922 | 194154
8 | 43:08.55 | 3:21.22 | 194155 | 209251
9 | 46:30.02 | 4:02.18 | 209252 | 227419
10 | 50:32.20 | 9:31.14 | 227420 | 270258
11 | 60:03.34 | 8:22.09 | 270259 | 307917
12 | 68:25.43 | 7:41.32 | 307918 | 342524
Range status and errors
Selected range
Filename C:\temp\CCS BOX 6414 Mozart - Complete Sonatas for Keyboard and Violin (Podger, Cooper)\CD4\Mozart - Complete Sonatas for Keyboard and Violin - CD4.wav
Peak level 100.0 %
Extraction speed 2.3 X
Range quality 99.9 %
Test CRC EF0FF50A
Copy CRC EF0FF50A
Copy OK
No errors occurred
AccurateRip summary
Track 1 accurately ripped (confidence 2) [C12D5533] (AR v2)
Track 2 accurately ripped (confidence 2) [75EC3C5D] (AR v2)
Track 3 accurately ripped (confidence 2) [38F44FCF] (AR v2)
Track 4 accurately ripped (confidence 2) [A1F7EE26] (AR v2)
Track 5 accurately ripped (confidence 2) [6E37B9E3] (AR v2)
Track 6 accurately ripped (confidence 2) [D3FD95DF] (AR v2)
Track 7 accurately ripped (confidence 2) [EFF408AB] (AR v2)
Track 8 accurately ripped (confidence 2) [30C42E5E] (AR v2)
Track 9 accurately ripped (confidence 2) [BD911AB1] (AR v2)
Track 10 accurately ripped (confidence 2) [7844EA35] (AR v2)
Track 11 accurately ripped (confidence 2) [BCB03565] (AR v2)
Track 12 accurately ripped (confidence 2) [354E1FEC] (AR v2)
All tracks accurately ripped
End of status report
==== Log checksum F8B2BBC88C3E78B98A809DB3755EC9B1AECADEA4734DA1A27603240B48211E70 ====

Лог создания рипа: CD5

Exact Audio Copy V1.0 beta 3 from 29. August 2011
EAC extraction logfile from 8. January 2015, 1:34
Rachel Podger, Gary Cooper / Mozart - Complete Sonatas for Keyboard and Violin - CD5
Used drive : HL-DT-STDVDRAM GU70N Adapter: 0 ID: 0
Read mode : Secure
Utilize accurate stream : Yes
Defeat audio cache : Yes
Make use of C2 pointers : No
Read offset correction : 48
Overread into Lead-In and Lead-Out : No
Fill up missing offset samples with silence : Yes
Delete leading and trailing silent blocks : No
Null samples used in CRC calculations : Yes
Used interface : Native Win32 interface for Win NT & 2000
Used output format : User Defined Encoder
Selected bitrate : 128 kBit/s
Quality : High
Add ID3 tag : No
Command line compressor : C:\Program Files (x86)\Exact Audio Copy\Flac\flac.exe
Additional command line options : -V -8 -T "Date=%year%" -T "Genre=%genre%" %source%
TOC of the extracted CD
Track | Start | Length | Start sector | End sector
---------------------------------------------------------
1 | 0:00.00 | 6:43.54 | 0 | 30278
2 | 6:43.54 | 9:43.30 | 30279 | 74033
3 | 16:27.09 | 7:36.36 | 74034 | 108269
4 | 24:03.45 | 3:26.35 | 108270 | 123754
5 | 27:30.05 | 6:50.17 | 123755 | 154521
6 | 34:20.22 | 4:08.19 | 154522 | 173140
7 | 38:28.41 | 5:46.32 | 173141 | 199122
8 | 44:14.73 | 7:47.11 | 199123 | 234158
9 | 52:02.09 | 12:17.70 | 234159 | 289503
10 | 64:20.04 | 6:53.34 | 289504 | 320512
Range status and errors
Selected range
Filename C:\temp\CCS BOX 6414 Mozart - Complete Sonatas for Keyboard and Violin (Podger, Cooper)\CD5\Mozart - Complete Sonatas for Keyboard and Violin - CD5.wav
Peak level 100.0 %
Extraction speed 2.2 X
Range quality 99.9 %
Test CRC 7B18E4A2
Copy CRC 7B18E4A2
Copy OK
No errors occurred
AccurateRip summary
Track 1 accurately ripped (confidence 2) [773CB654] (AR v2)
Track 2 accurately ripped (confidence 2) [C9CEFE5A] (AR v2)
Track 3 accurately ripped (confidence 2) [5510E007] (AR v2)
Track 4 accurately ripped (confidence 2) [46B92BF0] (AR v2)
Track 5 accurately ripped (confidence 2) [89BFE8BA] (AR v2)
Track 6 accurately ripped (confidence 2) [4928AC3F] (AR v2)
Track 7 accurately ripped (confidence 2) [7A0CE50C] (AR v2)
Track 8 accurately ripped (confidence 2) [5A5B9C8C] (AR v2)
Track 9 accurately ripped (confidence 2) [E18A2217] (AR v2)
Track 10 accurately ripped (confidence 2) [DF5F669E] (AR v2)
All tracks accurately ripped
End of status report
==== Log checksum 749A4FD4BE36ED45C682C5600AEA65D7B8F1AA0A0EC92DF74790B4662D89D86F ====

Лог создания рипа: CD6

Exact Audio Copy V1.0 beta 3 from 29. August 2011
EAC extraction logfile from 8. January 2015, 2:10
Rachel Podger, Gary Cooper / Mozart - Complete Sonatas for Keyboard and Violin - CD6
Used drive : HL-DT-STDVDRAM GU70N Adapter: 0 ID: 0
Read mode : Secure
Utilize accurate stream : Yes
Defeat audio cache : Yes
Make use of C2 pointers : No
Read offset correction : 48
Overread into Lead-In and Lead-Out : No
Fill up missing offset samples with silence : Yes
Delete leading and trailing silent blocks : No
Null samples used in CRC calculations : Yes
Used interface : Native Win32 interface for Win NT & 2000
Used output format : User Defined Encoder
Selected bitrate : 128 kBit/s
Quality : High
Add ID3 tag : No
Command line compressor : C:\Program Files (x86)\Exact Audio Copy\Flac\flac.exe
Additional command line options : -V -8 -T "Date=%year%" -T "Genre=%genre%" %source%
TOC of the extracted CD
Track | Start | Length | Start sector | End sector
---------------------------------------------------------
1 | 0:00.00 | 7:27.09 | 0 | 33533
2 | 7:27.09 | 5:32.70 | 33534 | 58503
3 | 13:00.04 | 6:16.70 | 58504 | 86773
4 | 19:16.74 | 6:58.44 | 86774 | 118167
5 | 26:15.43 | 6:11.05 | 118168 | 145997
6 | 32:26.48 | 3:59.65 | 145998 | 163987
7 | 36:26.38 | 4:22.66 | 163988 | 183703
8 | 40:49.29 | 4:29.15 | 183704 | 203893
9 | 45:18.44 | 6:06.62 | 203894 | 231405
10 | 51:25.31 | 9:24.19 | 231406 | 273724
11 | 60:49.50 | 5:41.21 | 273725 | 299320
Range status and errors
Selected range
Filename C:\temp\CCS BOX 6414 Mozart - Complete Sonatas for Keyboard and Violin (Podger, Cooper)\CD6\Mozart - Complete Sonatas for Keyboard and Violin - CD6.wav
Peak level 100.0 %
Extraction speed 5.3 X
Range quality 100.0 %
Test CRC 9C6B9D48
Copy CRC 9C6B9D48
Copy OK
No errors occurred
AccurateRip summary
Track 1 accurately ripped (confidence 2) [30E4A959] (AR v2)
Track 2 accurately ripped (confidence 2) [37A94E42] (AR v2)
Track 3 accurately ripped (confidence 2) [7BF920AC] (AR v2)
Track 4 accurately ripped (confidence 2) [4B9D62F4] (AR v2)
Track 5 accurately ripped (confidence 2) [7C4F58FC] (AR v2)
Track 6 accurately ripped (confidence 2) [6B9E052C] (AR v2)
Track 7 accurately ripped (confidence 2) [A89BAEE6] (AR v2)
Track 8 accurately ripped (confidence 2) [E0B6C8BC] (AR v2)
Track 9 accurately ripped (confidence 2) [D4B51FC9] (AR v2)
Track 10 accurately ripped (confidence 2) [4BAF701D] (AR v2)
Track 11 accurately ripped (confidence 2) [3A90FD90] (AR v2)
All tracks accurately ripped
End of status report
==== Log checksum F40735683B4666327E8BB426ED47541E13EAD8C93CDE530285B9BEE24142DDAD ====

Лог создания рипа: CD7

Exact Audio Copy V1.0 beta 3 from 29. August 2011
EAC extraction logfile from 8. January 2015, 21:13
Rachel Podger, Gary Cooper / Mozart - Complete Sonatas for Keyboard and Violin - CD7
Used drive : HL-DT-STDVDRAM GU70N Adapter: 0 ID: 0
Read mode : Secure
Utilize accurate stream : Yes
Defeat audio cache : Yes
Make use of C2 pointers : No
Read offset correction : 48
Overread into Lead-In and Lead-Out : No
Fill up missing offset samples with silence : Yes
Delete leading and trailing silent blocks : No
Null samples used in CRC calculations : Yes
Used interface : Native Win32 interface for Win NT & 2000
Used output format : User Defined Encoder
Selected bitrate : 128 kBit/s
Quality : High
Add ID3 tag : No
Command line compressor : C:\Program Files (x86)\Exact Audio Copy\Flac\flac.exe
Additional command line options : -V -8 -T "Date=%year%" -T "Genre=%genre%" %source%
TOC of the extracted CD
Track | Start | Length | Start sector | End sector
---------------------------------------------------------
1 | 0:00.00 | 8:05.00 | 0 | 36374
2 | 8:05.00 | 1:30.15 | 36375 | 43139
3 | 9:35.15 | 1:28.05 | 43140 | 49744
4 | 11:03.20 | 1:26.56 | 49745 | 56250
5 | 12:30.01 | 1:14.71 | 56251 | 61871
6 | 13:44.72 | 1:26.58 | 61872 | 68379
7 | 15:11.55 | 1:40.67 | 68380 | 75946
8 | 16:52.47 | 2:24.42 | 75947 | 86788
9 | 19:17.14 | 2:49.55 | 86789 | 99518
10 | 22:06.69 | 2:52.48 | 99519 | 112466
11 | 24:59.42 | 2:45.45 | 112467 | 124886
12 | 27:45.12 | 10:29.03 | 124887 | 172064
13 | 38:14.15 | 0:55.72 | 172065 | 176261
14 | 39:10.12 | 1:03.07 | 176262 | 180993
15 | 40:13.19 | 0:59.47 | 180994 | 185465
16 | 41:12.66 | 0:59.41 | 185466 | 189931
17 | 42:12.32 | 1:00.40 | 189932 | 194471
18 | 43:12.72 | 1:02.28 | 194472 | 199149
19 | 44:15.25 | 0:58.21 | 199150 | 203520
20 | 45:13.46 | 1:04.01 | 203521 | 208321
21 | 46:17.47 | 1:32.10 | 208322 | 215231
22 | 47:49.57 | 1:24.02 | 215232 | 221533
23 | 49:13.59 | 0:58.60 | 221534 | 225943
24 | 50:12.44 | 3:24.73 | 225944 | 241316
25 | 53:37.42 | 1:39.69 | 241317 | 248810
Range status and errors
Selected range
Filename C:\temp\CCS BOX 6414 Mozart - Complete Sonatas for Keyboard and Violin (Podger, Cooper)\CD7\Mozart - Complete Sonatas for Keyboard and Violin - CD7.wav
Peak level 100.0 %
Extraction speed 5.1 X
Range quality 100.0 %
Test CRC 02489889
Copy CRC 02489889
Copy OK
No errors occurred
AccurateRip summary
Track 1 accurately ripped (confidence 16) [CD9807E0] (AR v2)
Track 2 accurately ripped (confidence 16) [D69D73B6] (AR v2)
Track 3 accurately ripped (confidence 16) [14E010A1] (AR v2)
Track 4 accurately ripped (confidence 16) [3827FFE0] (AR v2)
Track 5 accurately ripped (confidence 16) [0B9737E8] (AR v2)
Track 6 accurately ripped (confidence 16) [7094090C] (AR v2)
Track 7 accurately ripped (confidence 16) [1AC84C72] (AR v2)
Track 8 accurately ripped (confidence 16) [E6F01B78] (AR v2)
Track 9 accurately ripped (confidence 16) [3A8772D6] (AR v2)
Track 10 accurately ripped (confidence 16) [56A96877] (AR v2)
Track 11 accurately ripped (confidence 16) [17DADC0B] (AR v2)
Track 12 accurately ripped (confidence 16) [10629261] (AR v2)
Track 13 accurately ripped (confidence 16) [BC37CD62] (AR v2)
Track 14 accurately ripped (confidence 16) [B1B6C1F8] (AR v2)
Track 15 accurately ripped (confidence 16) [01C116EF] (AR v2)
Track 16 accurately ripped (confidence 16) [CCF251F9] (AR v2)
Track 17 accurately ripped (confidence 16) [F5401DD9] (AR v2)
Track 18 accurately ripped (confidence 16) [F2379986] (AR v2)
Track 19 accurately ripped (confidence 16) [49880B68] (AR v2)
Track 20 accurately ripped (confidence 16) [59F8063F] (AR v2)
Track 21 accurately ripped (confidence 16) [A0801E14] (AR v2)
Track 22 accurately ripped (confidence 16) [1BCF45ED] (AR v2)
Track 23 accurately ripped (confidence 16) [24846654] (AR v2)
Track 24 accurately ripped (confidence 16) [4A6C7697] (AR v2)
Track 25 accurately ripped (confidence 16) [E51CD880] (AR v2)
All tracks accurately ripped
End of status report
==== Log checksum B516FC0F93EA9A1D067838CA7D065F5691AA3DBEBD07CC0F4F5B7CAAB29368F6 ====

Лог создания рипа: CD8

Exact Audio Copy V1.0 beta 3 from 29. August 2011
EAC extraction logfile from 9. January 2015, 0:35
Rachel Podger, Gary Cooper / Mozart - Complete Sonatas for Keyboard and Violin - CD8
Used drive : HL-DT-STDVDRAM GU70N Adapter: 0 ID: 0
Read mode : Secure
Utilize accurate stream : Yes
Defeat audio cache : Yes
Make use of C2 pointers : No
Read offset correction : 48
Overread into Lead-In and Lead-Out : No
Fill up missing offset samples with silence : Yes
Delete leading and trailing silent blocks : No
Null samples used in CRC calculations : Yes
Used interface : Native Win32 interface for Win NT & 2000
Used output format : User Defined Encoder
Selected bitrate : 128 kBit/s
Quality : High
Add ID3 tag : No
Command line compressor : C:\Program Files (x86)\Exact Audio Copy\Flac\flac.exe
Additional command line options : -V -8 -T "Date=%year%" -T "Genre=%genre%" %source%
TOC of the extracted CD
Track | Start | Length | Start sector | End sector
---------------------------------------------------------
1 | 0:00.00 | 4:54.32 | 0 | 22081
2 | 4:54.32 | 5:32.68 | 22082 | 47049
3 | 10:27.25 | 3:29.63 | 47050 | 62787
4 | 13:57.13 | 3:58.63 | 62788 | 80700
5 | 17:56.01 | 2:13.48 | 80701 | 90723
6 | 20:09.49 | 3:56.74 | 90724 | 108497
7 | 24:06.48 | 4:17.29 | 108498 | 127801
8 | 28:24.02 | 2:21.65 | 127802 | 138441
9 | 30:45.67 | 5:13.41 | 138442 | 161957
10 | 35:59.33 | 6:05.56 | 161958 | 189388
11 | 42:05.14 | 2:28.57 | 189389 | 200545
12 | 44:33.71 | 4:40.63 | 200546 | 221608
13 | 49:14.59 | 2:51.69 | 221609 | 234502
14 | 52:06.53 | 3:05.72 | 234503 | 248449
15 | 55:12.50 | 6:59.42 | 248450 | 279916
16 | 62:12.17 | 2:43.03 | 279917 | 292144
Range status and errors
Selected range
Filename C:\temp\CCS BOX 6414 Mozart - Complete Sonatas for Keyboard and Violin (Podger, Cooper)\CD8\Mozart - Complete Sonatas for Keyboard and Violin - CD8.wav
Peak level 100.0 %
Extraction speed 5.3 X
Range quality 99.9 %
Test CRC 05010A4B
Copy CRC 05010A4B
Copy OK
No errors occurred
AccurateRip summary
Track 1 accurately ripped (confidence 2) [9554301F] (AR v2)
Track 2 accurately ripped (confidence 2) [7E27BA6A] (AR v2)
Track 3 accurately ripped (confidence 2) [FD7FE56D] (AR v2)
Track 4 accurately ripped (confidence 2) [964991F6] (AR v2)
Track 5 accurately ripped (confidence 2) [7FF2B182] (AR v2)
Track 6 accurately ripped (confidence 2) [0CDD2D9B] (AR v2)
Track 7 accurately ripped (confidence 2) [4ABB94F1] (AR v2)
Track 8 accurately ripped (confidence 2) [5FD81E78] (AR v2)
Track 9 accurately ripped (confidence 2) [058D1E57] (AR v2)
Track 10 accurately ripped (confidence 2) [D8994344] (AR v2)
Track 11 accurately ripped (confidence 2) [D60F67FD] (AR v2)
Track 12 accurately ripped (confidence 2) [6755C3AA] (AR v2)
Track 13 accurately ripped (confidence 2) [68D05B64] (AR v2)
Track 14 accurately ripped (confidence 2) [1E658842] (AR v2)
Track 15 accurately ripped (confidence 2) [F05AB0B1] (AR v2)
Track 16 cannot be verified as accurate (confidence 14) [3862E58C], AccurateRip returned [A8359121] (AR v2)
15 track(s) accurately ripped
1 track(s) could not be verified as accurate
Some tracks could not be verified as accurate
End of status report
==== Log checksum 53A5AC936B472D4DC3B0753AA87B53B9C54E655D7863819E8B19A54F60832EFC ====



Показать сообщения:    

Текущее время: 10-Дек 00:17

Часовой пояс: UTC + 3


Вы не можете начинать темы
Вы не можете отвечать на сообщения
Вы не можете редактировать свои сообщения
Вы не можете удалять свои сообщения
Вы не можете голосовать в опросах
Вы не можете прикреплять файлы к сообщениям
Вы не можете скачивать файлы