(Classical/Choral/Renaissance) Encantar - La declinaison de la femme (Rondom Margaretha van Oostenrijk, Around Margaret of Austria; Prez, Rue, Festa, Spinacino, Agricola, Compere, Ghiselin) 2011, FLAC (tracks+.cue) lossless


Статистика раздачи [Обновить пиров]
Размер:  284 MB   |    Зарегистрирован:  8 месяцев 21 день   |    Скачан:  0 раз

Полного источника не было: Никогда

 
   
 
 
 

[Цитировать]

La déclinaison de la femme
Rondom Margaretha van Oostenrijk —
Around Margaret of Austria

'Жанр: Classical, Renaissance
Год издания диска: 2010
Издатель (лейбл): Phaedra
Номер по каталогу: DDD 92069
Аудиокодек: FLAC
Тип рипа: tracks+.cue
Битрейт аудио: lossless
Продолжительность: 1:03:04
Источник: DrLove
Наличие сканов в содержимом раздачи: да
Треклист :
01 Proch dolor — Josquin des Prez (?) (na 1450-1521) 3:03
02 Tous les Regretz - Pierre de la Rue (ca. 1460-1518) 3:20
03 Lamentatio I — Costanzo Festa (1490-1545) 6:29
04 Ricercare — Francesco Spinacino (1450-1507) 2:25
05 Ave Maria Stella — Alexander Agricola (1446-1506) 10:12
06 Tous nobles cuers — Pierre de la Rue (ca. 1460-1518) 4:04
07 Ricercare a tre voci — Adriaan Willaert (ca. 1490-1562) 4:16
08 O Crux Ave — Alexander Agricola (1446-1506) 3:33
09 Basse danse; La Spagna — Alexander Agricola (1446-1506) 2:22
10 Paranymphus — Loyset Compere (ca. 1440/1445-1518) 3:27
11 La Alfonsina — Johannes Ghiselin (1455-1507/1511) 2:02
12 La Bernardina 'for two lutes' — Francesco Spinacino/Josquin des Prez 1:39
13 Regina Coeli — Costanzo Festa (1490-1545) 3:20
14 Triste suis — anoniem 4:21
15 Pour ung jamais — Pierre de la Rue (ca. 1460-1518) 4:55
16 Dulces exuviae — anoniem 3:37'Encantar
SARAH ABRAMS, soprano
LIESELOT DE WILDE, mezzo
KERLIJNE VAN NEVEL, mezzo
SOETKIN BAPTIST, alto
m.m.v.
SOFIE VANDEN EYNDE, lute
FLORIS DE RYCKER, lute
HANNELORE DE VAERE, harp
encantar.be

Лог создания рипа

Exact Audio Copy V1.0 beta 3 from 29. August 2011
EAC extraction logfile from 23. February 2013, 13:37
Encantar / La declinaison de la femme
Used drive : TSSTcorpCD/DVDW SH-S182D Adapter: 0 ID: 0
Read mode : Secure
Utilize accurate stream : Yes
Defeat audio cache : No
Make use of C2 pointers : No
Read offset correction : 6
Overread into Lead-In and Lead-Out : No
Fill up missing offset samples with silence : Yes
Delete leading and trailing silent blocks : No
Null samples used in CRC calculations : Yes
Used interface : Native Win32 interface for Win NT & 2000
Used output format : User Defined Encoder
Selected bitrate : 768 kBit/s
Quality : High
Add ID3 tag : No
Command line compressor : C:\Program Files\Exact Audio Copy\FLAC\FLAC.EXE
Additional command line options : -6 -V -T "ARTIST=%artist%" -T "TITLE=%title%" -T "ALBUM=%albumtitle%" -T "DATE=%year%" -T "TRACKNUMBER=%tracknr%" -T "GENRE=%genre%" -T "COMMENT=%comment%" -T "BAND=%albuminterpret%" -T "ALBUMARTIST=%albuminterpret%" -T "COMPOSER=%composer%" %haslyrics%--tag-from-file=LYRICS="%lyricsfile%"%haslyrics% -T "DISCNUMBER=%cdnumber%" -T "TOTALDISCS=%totalcds%" -T "TOTALTRACKS=%numtracks%" %hascover%--picture="%coverfile%"%hascover% %source% -o %dest%
TOC of the extracted CD
Track | Start | Length | Start sector | End sector
---------------------------------------------------------
1 | 0:00.00 | 3:03.10 | 0 | 13734
2 | 3:03.10 | 3:19.70 | 13735 | 28729
3 | 6:23.05 | 6:29.17 | 28730 | 57921
4 | 12:52.22 | 2:25.19 | 57922 | 68815
5 | 15:17.41 | 10:11.68 | 68816 | 114708
6 | 25:29.34 | 4:03.71 | 114709 | 133004
7 | 29:33.30 | 4:15.41 | 133005 | 152170
8 | 33:48.71 | 3:33.19 | 152171 | 168164
9 | 37:22.15 | 2:22.23 | 168165 | 178837
10 | 39:44.38 | 3:26.51 | 178838 | 194338
11 | 43:11.14 | 2:02.19 | 194339 | 203507
12 | 45:13.33 | 1:38.54 | 203508 | 210911
13 | 46:52.12 | 3:19.45 | 210912 | 225881
14 | 50:11.57 | 4:20.73 | 225882 | 245454
15 | 54:32.55 | 4:55.00 | 245455 | 267579
16 | 59:27.55 | 3:36.40 | 267580 | 283819
Range status and errors
Selected range
Filename D:\Herman\Incoming\Rip\Encantar - La declinaison de la femme.wav
Peak level 69.9 %
Extraction speed 11.0 X
Range quality 100.0 %
Test CRC D81D2314
Copy CRC D81D2314
Copy OK
No errors occurred
AccurateRip summary
Track 1 not present in database
Track 2 not present in database
Track 3 not present in database
Track 4 not present in database
Track 5 not present in database
Track 6 not present in database
Track 7 not present in database
Track 8 not present in database
Track 9 not present in database
Track 10 not present in database
Track 11 not present in database
Track 12 not present in database
Track 13 not present in database
Track 14 not present in database
Track 15 not present in database
Track 16 not present in database
None of the tracks are present in the AccurateRip database
End of status report
------------------------------------------------------------
Exact Audio Copy V1.0 beta 3 from 29. August 2011
EAC extraction logfile from 23. February 2013, 13:37
Encantar / La declinaison de la femme
Used drive : TSSTcorpCD/DVDW SH-S182D Adapter: 0 ID: 0
Read mode : Secure
Utilize accurate stream : Yes
Defeat audio cache : No
Make use of C2 pointers : No
Read offset correction : 6
Overread into Lead-In and Lead-Out : No
Fill up missing offset samples with silence : Yes
Delete leading and trailing silent blocks : No
Null samples used in CRC calculations : Yes
Used interface : Native Win32 interface for Win NT & 2000
Used output format : User Defined Encoder
Selected bitrate : 768 kBit/s
Quality : High
Add ID3 tag : No
Command line compressor : C:\Program Files\Exact Audio Copy\FLAC\FLAC.EXE
Additional command line options : -6 -V -T "ARTIST=%artist%" -T "TITLE=%title%" -T "ALBUM=%albumtitle%" -T "DATE=%year%" -T "TRACKNUMBER=%tracknr%" -T "GENRE=%genre%" -T "COMMENT=%comment%" -T "BAND=%albuminterpret%" -T "ALBUMARTIST=%albuminterpret%" -T "COMPOSER=%composer%" %haslyrics%--tag-from-file=LYRICS="%lyricsfile%"%haslyrics% -T "DISCNUMBER=%cdnumber%" -T "TOTALDISCS=%totalcds%" -T "TOTALTRACKS=%numtracks%" %hascover%--picture="%coverfile%"%hascover% %source% -o %dest%
TOC of the extracted CD
Track | Start | Length | Start sector | End sector
---------------------------------------------------------
1 | 0:00.00 | 3:03.10 | 0 | 13734
2 | 3:03.10 | 3:19.70 | 13735 | 28729
3 | 6:23.05 | 6:29.17 | 28730 | 57921
4 | 12:52.22 | 2:25.19 | 57922 | 68815
5 | 15:17.41 | 10:11.68 | 68816 | 114708
6 | 25:29.34 | 4:03.71 | 114709 | 133004
7 | 29:33.30 | 4:15.41 | 133005 | 152170
8 | 33:48.71 | 3:33.19 | 152171 | 168164
9 | 37:22.15 | 2:22.23 | 168165 | 178837
10 | 39:44.38 | 3:26.51 | 178838 | 194338
11 | 43:11.14 | 2:02.19 | 194339 | 203507
12 | 45:13.33 | 1:38.54 | 203508 | 210911
13 | 46:52.12 | 3:19.45 | 210912 | 225881
14 | 50:11.57 | 4:20.73 | 225882 | 245454
15 | 54:32.55 | 4:55.00 | 245455 | 267579
16 | 59:27.55 | 3:36.40 | 267580 | 283819
Range status and errors
Selected range
Filename D:\Herman\Incoming\Rip\Encantar - La declinaison de la femme.wav
Peak level 69.9 %
Extraction speed 11.0 X
Range quality 100.0 %
Test CRC D81D2314
Copy CRC D81D2314
Copy OK
No errors occurred
AccurateRip summary
Track 1 not present in database
Track 2 not present in database
Track 3 not present in database
Track 4 not present in database
Track 5 not present in database
Track 6 not present in database
Track 7 not present in database
Track 8 not present in database
Track 9 not present in database
Track 10 not present in database
Track 11 not present in database
Track 12 not present in database
Track 13 not present in database
Track 14 not present in database
Track 15 not present in database
Track 16 not present in database
None of the tracks are present in the AccurateRip database
End of status report

Содержание индексной карты (.CUE)

REM GENRE Classical
REM DATE 2010
REM DISCID E60EC810
REM COMMENT "ExactAudioCopy v1.0b3"
PERFORMER "Encantar"
TITLE "La declinaison de la femme"
FILE "Encantar - La declinaison de la femme.flac" WAVE
TRACK 01 AUDIO
TITLE "Proch dolor"
PERFORMER "Encantar"
ISRC FLAGS DCP
INDEX 01 00:00:00
TRACK 02 AUDIO
TITLE "Tous les Regretz"
PERFORMER "Encantar"
ISRC FLAGS DCP
INDEX 01 03:03:10
TRACK 03 AUDIO
TITLE "Lamentatio I"
PERFORMER "Encantar"
ISRC FLAGS DCP
INDEX 01 06:23:05
TRACK 04 AUDIO
TITLE "Ricercare"
PERFORMER "Encantar"
ISRC FLAGS DCP
INDEX 01 12:52:22
TRACK 05 AUDIO
TITLE "Ave Maria Stella"
PERFORMER "Encantar"
ISRC FLAGS DCP
INDEX 01 15:17:41
TRACK 06 AUDIO
TITLE "Tous nobles cuers"
PERFORMER "Encantar"
ISRC FLAGS DCP
INDEX 01 25:29:34
TRACK 07 AUDIO
TITLE "Ricercare a tre voci"
PERFORMER "Encantar"
ISRC FLAGS DCP
INDEX 01 29:33:30
TRACK 08 AUDIO
TITLE "O Crux Ave"
PERFORMER "Encantar"
ISRC FLAGS DCP
INDEX 01 33:48:71
TRACK 09 AUDIO
TITLE "Basse danse; La Spagna"
PERFORMER "Encantar"
ISRC FLAGS DCP
INDEX 01 37:22:15
TRACK 10 AUDIO
TITLE "Paranymphus"
PERFORMER "Encantar"
ISRC FLAGS DCP
INDEX 01 39:44:38
TRACK 11 AUDIO
TITLE "La Alfonsina"
PERFORMER "Encantar"
ISRC FLAGS DCP
INDEX 01 43:11:14
TRACK 12 AUDIO
TITLE "La Bernardina 'for two lutes'"
PERFORMER "Encantar"
ISRC FLAGS DCP
INDEX 01 45:13:33
TRACK 13 AUDIO
TITLE "Regina Coeli"
PERFORMER "Encantar"
ISRC FLAGS DCP
INDEX 01 46:52:12
TRACK 14 AUDIO
TITLE "Triste suis"
PERFORMER "Encantar"
ISRC FLAGS DCP
INDEX 01 50:11:57
TRACK 15 AUDIO
TITLE "Pour ung jamais"
PERFORMER "Encantar"
ISRC FLAGS DCP
INDEX 01 54:32:55
TRACK 16 AUDIO
TITLE "Dulces exuviae"
PERFORMER "Encantar"
ISRC FLAGS DCP
INDEX 01 59:27:55

[teatrix.ru].t22975.torrent 
Торрент: Зарегистрирован [ 2016-03-21 00:35 ] · 042A14D2EDB5D62D468914E194F0282B7FB4D370

Скачать .torrent

Скачать

13 KB

Статус: проверено
Скачан: 0 раз
Размер: 284 MB
terms.php



Быстрый ответ

Имя:

      
Для отправки сообщений необходимо включить JavaScript
Показать сообщения:    

Текущее время: 11-Дек 16:52

Часовой пояс: UTC + 3


Вы можете начинать темы
Вы можете отвечать на сообщения
Вы не можете редактировать свои сообщения
Вы не можете удалять свои сообщения
Вы не можете голосовать в опросах
Вы не можете прикреплять файлы к сообщениям
Вы можете скачивать файлы