Уайти: США против Джеймса Дж. Балджера / Whitey: USA v. James J. Bulger (Джо Берлингер / Joe Berlinger) [2014, Док. фильм, SATRip]


Статистика раздачи [Обновить пиров]
Размер:  598 MB   |    Зарегистрирован:  8 месяцев 20 дней   |    Скачан:  0 раз

Полного источника не было: Никогда

 
   
 
 
 

[Цитировать]

Уайти: США против Джеймса Дж. Балджера / Whitey: USA v. James J. Bulger
Дата/Год выпуска: 2014
Страна: США
Жанр: Док. фильм
Продолжительность: 01:25:22
Перевод: Субтитры
Русские субтитры: есть
Формат субтитров: hardsub (неотключаемые)
Оригинальная аудиодорожка: английский
Режиссер: Джо Берлингер / Joe Berlinger
Описание: Отмеченная тремя призами ( и еще трижды номинированная) документальная лента, рассказывающая о "знаменитом американском гангстере"
SATRip от : Твид
Доп. информация: Любезно предоставлено клубом Fenix
Сэмпл: http://multi-up.com/1088945
качество: SATRip
формат: AVI
Видео: XviD, 841 kb/s, 640x480, 25 fps, 0.110 bits/pixel
Аудио: 0x0055(MP3) ID'd as MPEG-1 Layer 3, 128 kb/s (2/ch, stereo) CBR - Английский

MediaInfo

Общее
Полное имя : D:\Fillms-1\SSHA protiv Jamesa Dzh. Baldzhera.SAT-rip.by.Твид.fenixclub.avi
Формат : AVI
Формат/Информация : Audio Video Interleave
Размер файла : 598 Мбайт
Продолжительность : 1 ч. 25 м.
Общий поток : 979 Кбит/сек
Видео
Идентификатор : 0
Формат : MPEG-4 Visual
Профиль формата : Advanced Simple@L5
Параметр BVOP формата : 2
Параметр QPel формата : Нет
Параметр GMC формата : Без точки перехода
Параметр матрицы формата : Default (H.263)
Идентификатор кодека : XVID
Идентификатор кодека/Подсказка : XviD
Продолжительность : 1 ч. 25 м.
Битрейт : 841 Кбит/сек
Ширина : 640 пикселей
Высота : 480 пикселей
Соотношение сторон : 4:3
Частота кадров : 25,000 кадров/сек
Цветовое пространство : YUV
Субдискретизация насыщенности : 4:2:0
Битовая глубина : 8 бит
Тип развёртки : Прогрессивная
Метод сжатия : С потерями
Бит/(Пиксели*Кадры) : 0.110
Размер потока : 514 Мбайт (86%)
Библиотека кодирования : XviD 1.1.2 (UTC 2006-11-01)
Аудио
Идентификатор : 1
Формат : MPEG Audio
Версия формата : Version 1
Профиль формата : Layer 3
Режим : Joint stereo
Расширение режима : MS Stereo
Идентификатор кодека : 55
Идентификатор кодека/Подсказка : MP3
Продолжительность : 1 ч. 25 м.
Вид битрейта : Постоянный
Битрейт : 128 Кбит/сек
Каналы : 2 канала
Частота : 44,1 КГц
Метод сжатия : С потерями
Размер потока : 78,1 Мбайт (13%)
Выравнивание : Разделение по промежуткам
Продолжительность промежутка : 40 мс. (1,00 видеокадр)
Время предзагрузки промежутка : 500 мс.

Скриншоты





Постеры



[teatrix.ru].t22976.torrent 
Торрент: Зарегистрирован [ 2016-03-21 00:35 ] · 3330DBB0F04766F2C9A1347A3AFCF7393E4AA185

Скачать .torrent

Скачать

12 KB

Статус: проверено
Скачан: 0 раз
Размер: 598 MB
terms.php



Быстрый ответ

Имя:

      
Для отправки сообщений необходимо включить JavaScript
Показать сообщения:    

Текущее время: 10-Дек 17:48

Часовой пояс: UTC + 3


Вы можете начинать темы
Вы можете отвечать на сообщения
Вы не можете редактировать свои сообщения
Вы не можете удалять свои сообщения
Вы не можете голосовать в опросах
Вы не можете прикреплять файлы к сообщениям
Вы можете скачивать файлы