Защитные цвета / Barwy ochronne (Кшиштоф Занусси / Krzysztof Zanussi) [1977, Польша, драма, комедия, DVDRip] DVO (Культура) + Original (Pol)


Статистика раздачи [Обновить пиров]
Размер:  1.46 GB   |    Зарегистрирован:  8 месяцев 20 дней   |    Скачан:  0 раз

Полного источника не было: Никогда

 
   
 
 
 

[Цитировать]

Защитные цвета / Barwy ochronne
Страна: Польша
Жанр: драма, комедия
Год выпуска: 1977
Продолжительность: 01:36:38
Перевод: Профессиональный (двухголосый закадровый) телеканал "Культура"
Cубтитры: нет
Оригинальная аудиодорожка: польский
Режиссер: Кшиштоф Занусси / Krzysztof Zanussi
В ролях: Пётр Гарлицкий, Збигнев Запасевич, Кристин Пол-Подласки, Мариуш Дмоховский, Войцех Аляборский, Мечислав Банасик, Кристина Бигельмайер, Ядвига Колонна-Валевска, Альфред Фройденхайм, Мариан Глинка, Анна Гжещяк, Ивона Слочиньска, Кристина Шнерр-Межеевская, Лех Эмфазы Стефанский, Марек Войцеховский, Магдалена Завадска, Эугениуш Привезенцев, Риккардо Сальвино
Описание: В летнем лагере студенты не только отдыхают, но и продолжают учиться. Юный педагог Ярослав — идеалист, полный романтических устремлений. Его старший коллега Якуб — прагматик, пропагандирующий теорию «защитных цветов», согласно которой человеку необходимо постоянно приспосабливаться к обстоятельствам. За конфликтом двух педагогов пристально наблюдают и преподаватели, и студенты. Впрочем, некоторых из них роль пассивных наблюдателей не устраивает.
Доп. информация:
Качество видео: DVDRip | sss777sss/DVD9
Формат видео: AVI
Видео: 672x400 (1.68:1), 25 fps, XviD build 73 ~1729 kbps avg, 0.26 bit/pixel
Аудио 1: 48 kHz, AC3 Dolby Digital, 2/0 (L,R) ch, ~192 kbps двухголосый
Аудио 2: 48 kHz, AC3 Dolby Digital, 1/0 (C) ch, ~224 kbps оригинал

MediaInfo

General
Complete name : C:\Users\User\Desktop\Barwy.ochronne.1977.DVDRip.DVO.Pol_by_LBS.avi
Format : AVI
Format/Info : Audio Video Interleave
File size : 1.46 GiB
Duration : 1h 36mn
Overall bit rate : 2 161 Kbps
Director : Last Boy Scout
Writing application : VirtualDubMod 1.5.10.3 | www.virtualdub-fr.org || (build 2550/release)
Copyright : rutracker.org 14.02.2016
Comment : DVDRip DVO (Культура) + Original (Pol)
Video
ID : 0
Format : MPEG-4 Visual
Format profile : Advanced Simple@L5
Format settings, BVOP : 1
Format settings, QPel : No
Format settings, GMC : No warppoints
Format settings, Matrix : Custom
Codec ID : XVID
Codec ID/Hint : XviD
Duration : 1h 36mn
Bit rate : 1 731 Kbps
Width : 672 pixels
Height : 400 pixels
Display aspect ratio : 1.680
Frame rate : 25.000 fps
Color space : YUV
Chroma subsampling : 4:2:0
Bit depth : 8 bits
Scan type : Progressive
Compression mode : Lossy
Bits/(Pixel*Frame) : 0.258
Stream size : 1.17 GiB (80%)
Writing library : XviD 73
Audio #1
ID : 1
Format : AC-3
Format/Info : Audio Coding 3
Mode extension : CM (complete main)
Format settings, Endianness : Big
Codec ID : 2000
Duration : 1h 36mn
Bit rate mode : Constant
Bit rate : 192 Kbps
Channel(s) : 2 channels
Channel positions : Front: L R
Sampling rate : 48.0 KHz
Bit depth : 16 bits
Compression mode : Lossy
Stream size : 133 MiB (9%)
Alignment : Split accross interleaves
Interleave, duration : 40 ms (1.00 video frame)
Interleave, preload duration : 500 ms
Audio #2
ID : 2
Format : AC-3
Format/Info : Audio Coding 3
Mode extension : CM (complete main)
Format settings, Endianness : Big
Codec ID : 2000
Duration : 1h 36mn
Bit rate mode : Constant
Bit rate : 224 Kbps
Channel(s) : 1 channel
Channel positions : Front: C
Sampling rate : 48.0 KHz
Bit depth : 16 bits
Compression mode : Lossy
Stream size : 155 MiB (10%)
Alignment : Split accross interleaves
Interleave, duration : 40 ms (1.00 video frame)
Interleave, preload duration : 500 ms

Скриншоты

[teatrix.ru].t22977.torrent 
Торрент: Зарегистрирован [ 2016-03-21 00:35 ] · 24CB9CEC16204A8308CECAC39223C45F063B588C

Скачать .torrent

Скачать

15 KB

Статус: проверено
Скачан: 0 раз
Размер: 1.46 GB
terms.php



Быстрый ответ

Имя:

      
Для отправки сообщений необходимо включить JavaScript
Показать сообщения:    

Текущее время: 10-Дек 10:01

Часовой пояс: UTC + 3


Вы можете начинать темы
Вы можете отвечать на сообщения
Вы не можете редактировать свои сообщения
Вы не можете удалять свои сообщения
Вы не можете голосовать в опросах
Вы не можете прикреплять файлы к сообщениям
Вы можете скачивать файлы