Безумие Олмейера / Каприз Олмейера / La folie Almayer / Almayer's Folly (Шанталь Акерман / Chantal Akerman) [2011, Бельгия, Франция, драма, экранизация, DVB] Original (Fre) + Sub (Rus, Eng, Fre)


Статистика раздачи [Обновить пиров]
Размер:  3.03 GB   |    Зарегистрирован:  8 месяцев 18 дней   |    Скачан:  0 раз

Полного источника не было: Никогда

 
   
 
 
 

[Цитировать]

Безумие Олмейера
La folie Almayer- Страна: Бельгия, Франция
Жанр: драма, экранизация
Год выпуска: 2011
Продолжительность: 02:01:51Перевод: Субтитры (русский перевод И.Рыбкиной, Éclair Media)
Cубтитры: русские, английские, французские, нидерландские, румынские
Оригинальная аудиодорожка: французский
Режиссер: Шанталь Акерман / Chantal Akerman
В ролях: Станислас Мерар / Stanislas Merhar (Almayer), Марк Барбе / Marc Barbé (Capitaine Lingard), Орор Марион / Aurora Marion (Nina), Зак Андрианасоло / Zac Andrianasolo (Daïn), Сахна Ум / Sakhna Oum (Zahira)
Описание: Вольная экранизация романа Джозефа Конрада / Joseph Conrad "Безумие Олмейера / Almayer's Folly" (1895).
Фильм Шанталь Акерман "Каприз Олмейера" поставлен по одноимённому роману классика английской литературы Джозефа Конрада, этой книгой в 1895 году Конрад начал свою писательскую карьеру. По сюжету Конрада главный герой романа, голландский купец Олмейер, одержим идеей разыскать зарытые в малайских джунглях сокровища пирата Лингарда, чтобы вернуться вместе со своей дочерью Ниной в Европу богатым человеком. После того как Нина, чьей матерью была малайка (приёмная дочь Лингарда), уходит к местному торговцу, Олмейер погибает, пристрастившись к опиуму. (Наталья Шарапова)
Доп. информация: Hot Bird (13.0°E) TV5MONDE Europe DVB-S. Во время нефранцузской речи вшитые французские субтитры.
Награды: 4 номинации Magritte Awards (Belgium) 2013 ("Актриса-надежда" - Aurora Marion, оператор, художник-постановщик, художник по костюмам). Участник Venice Film Festival 2011.

Качество видео: DVB
Формат видео: TS
Видео: MPEG Video 2, 720x576@1024x576 (16:9), 25 fps, ~3192 kbps avg, 0.308 bit/pixel
Аудио: MPEG Audio 2, 2 ch, 48 kHz, 192 kbps - французский
Формат субтитров: PGS

MediaInfo

Общее
Идентификатор : 1 (0x1)
Полное имя : F:\My Torrents 3\[apreder]La_folie_Almayer(2011)DVB.ts
Формат : MPEG-TS
Размер файла : 3,03 Гбайт
Продолжительность : 2 ч. 1 м.
Режим общего битрейта : Переменный
Общий поток : 3562 Кбит/сек
Максимальный общий битрейт : 35,5 Мбит/сек
Видео
Идентификатор : 4113 (0x1011)
Идентификатор меню : 1 (0x1)
Формат : MPEG Video
Версия формата : Version 2
Профиль формата : Main@Main
Параметр BVOP формата : Да
Параметр матрицы формата : Выборочная
Параметр GOP формата : M=4, N=12
Format_Settings_PictureStructure : Frame
Идентификатор кодека : 2
Продолжительность : 2 ч. 1 м.
Вид битрейта : Переменный
Битрейт : 3192 Кбит/сек
Ширина : 720 пикселей
Высота : 576 пикселей
Соотношение сторон : 16:9
Частота кадров : 25,000 кадров/сек
Стандарт вещания : PAL
Цветовое пространство : YUV
Субдискретизация насыщенности : 4:2:0
Битовая глубина : 8 бит
Тип развёртки : Чересстрочная
Порядок развёртки : Верхнее поле первое
Метод сжатия : С потерями
Бит/(Пиксели*Кадры) : 0.308
Временной код первого кадра : 00:00:00:00
Оригинал временного кода : Group of pictures header
Размер потока : 2,72 Гбайт (90%)
Аудио
Идентификатор : 4352 (0x1100)
Идентификатор меню : 1 (0x1)
Формат : MPEG Audio
Версия формата : Version 1
Профиль формата : Layer 2
Режим : Joint stereo
Расширение режима : Intensity Stereo + MS Stereo
Идентификатор кодека : 4
Продолжительность : 2 ч. 1 м.
Вид битрейта : Постоянный
Битрейт : 192 Кбит/сек
Каналы : 2 канала
Частота : 48,0 КГц
Метод сжатия : С потерями
Размер потока : 167 Мбайт (5%)
Язык : French
Текст #1
Идентификатор : 4608 (0x1200)
Идентификатор меню : 1 (0x1)
Формат : PGS
Идентификатор кодека : 144
Язык : Russian
Текст #2
Идентификатор : 4609 (0x1201)
Идентификатор меню : 1 (0x1)
Формат : PGS
Идентификатор кодека : 144
Язык : English
Текст #3
Идентификатор : 4610 (0x1202)
Идентификатор меню : 1 (0x1)
Формат : PGS
Идентификатор кодека : 144
Язык : French
Текст #4
Идентификатор : 4611 (0x1203)
Идентификатор меню : 1 (0x1)
Формат : PGS
Идентификатор кодека : 144
Язык : German
Текст #5
Идентификатор : 4612 (0x1204)
Идентификатор меню : 1 (0x1)
Формат : PGS
Идентификатор кодека : 144
Язык : Dutch
Текст #6
Идентификатор : 4613 (0x1205)
Идентификатор меню : 1 (0x1)
Формат : PGS
Идентификатор кодека : 144
Язык : Romanian

Скриншот c названием фильма

Скриншоты


Резервные скриншоты


-
[teatrix.ru].t22978.torrent 
Торрент: Зарегистрирован [ 2016-03-21 00:35 ] · 653DDFA4C76C396899C6D6E946F46FC18EC17835

Скачать .torrent

Скачать

16 KB

Статус: проверено
Скачан: 0 раз
Размер: 3.03 GB
terms.php



Быстрый ответ

Имя:

      
Для отправки сообщений необходимо включить JavaScript
Показать сообщения:    

Текущее время: 08-Дек 03:15

Часовой пояс: UTC + 3


Вы можете начинать темы
Вы можете отвечать на сообщения
Вы не можете редактировать свои сообщения
Вы не можете удалять свои сообщения
Вы не можете голосовать в опросах
Вы не можете прикреплять файлы к сообщениям
Вы можете скачивать файлы