Мебель Версаля: от Короля-Солнце до Великой французской революции / Le mobilier de Versailles, du Roi-Soleil a la Revolution (Фабрис Урлие / Fabrice Hourlier) [2014, документальный, история искусства, DVB] DVO (SDI Media)


Статистика раздачи [Обновить пиров]
Размер:  1.04 GB   |    Зарегистрирован:  8 месяцев 14 дней   |    Скачан:  0 раз

Полного источника не было: Никогда

 
   
 
 
 

[Цитировать]

Мебель Версаля: от Короля-Солнце до Великой французской революции
Le mobilier de Versailles, du Roi-Soleil à la Révolution- Дата/Год выпуска: 2014
Страна: Франция
Жанр: документальный, история искусства
Продолжительность: 00:51:52
Перевод: Профессиональный (двухголосый закадровый)
Доп. инфо о переводе: Компания "SDI Media" по заказу ТПО "Ред Медиа"
Русские субтитры: нет
Режиссер: Фабрис Урлие / Fabrice Hourlier
Телеканал: 365 днейОписание: Серебро, драгоценное дерево, бронза – королевская мебель Версаля раскрывает свои секреты. Представьте, что давно исчезнувшие сокровища из золота и серебра появились вновь. Вы увидите королевские интерьеры, прежде скрытые от посторонних глаз. И вы узнаете, как союз искусства и науки создал шедевры французской мебели. (из предисловия к фильму)
Доп. информация: Eutelsat 36B (W7) DVB-S

качество: DVB
формат: MKV
Видео: MPEG Video 2, 720x576 (4:3), 25 fps, ~2621 kbps avg, 0.253 bit/pixel
Аудио: MPEG Audio 2, 2 ch, 48 kHz, 192 kbps

Информация по редактированию

Topfield SRP-2410 – запись спутниковой трансляции DVB-S (.rec)
ProjectX 0.91.0.10 - разбор контейнера, удаление рекламы и доп. информации
MKVToolNix GUI 8.8.0 – сборка в контейнер MKV
MkvTagger – редактирование тегов

MediaInfo

Общее
Уникальный идентификатор : 219217253568835015795378832894803822533 (0xA4EBB511722D572CAE33C1E5BDEFC7C5)
Полное имя : [apreder]Le_mobilier_de_Versailles(2014)DVB.mkv
Формат : Matroska
Версия формата : Version 2
Размер файла : 1,04 Гбайт
Продолжительность : 51 м.
Режим общего битрейта : Переменный
Общий поток : 2870 Кбит/сек
Название фильма : Le mobilier de Versailles, du Roi-Soleil à la Révolution
Дата выпуска : 2014-00-00
Дата кодирования : UTC 2016-02-14 11:46:15
Программа кодирования : mkvmerge v8.8.0 ('Wind at my back') 64bit
Библиотека кодирования : libebml v1.3.3 + libmatroska v1.4.4
Обложка : Yes
Attachments : cover.jpg / cover_small.jpg
DIRECTOR : Fabrice Hourlier
GENRE : Documentary
KEYWORDS : rutracker.org
LAW_RATING : 12+
Видео
Идентификатор : 1
Формат : MPEG Video
Версия формата : Version 2
Профиль формата : Main@Main
Параметр BVOP формата : Да
Параметр матрицы формата : Выборочная
Параметр GOP формата : Variable
Format_Settings_PictureStructure : Frame
Идентификатор кодека : V_MPEG2
Идентификатор кодека/Информация : MPEG 1 or 2 Video
Продолжительность : 51 м.
Вид битрейта : Переменный
Битрейт : 2621 Кбит/сек
Ширина : 720 пикселей
Высота : 576 пикселей
Соотношение сторон : 4:3
Режим частоты кадров : Постоянный
Частота кадров : 25,000 кадров/сек
Стандарт вещания : PAL
Цветовое пространство : YUV
Субдискретизация насыщенности : 4:2:0
Битовая глубина : 8 бит
Тип развёртки : Чересстрочная
Порядок развёртки : Верхнее поле первое
Метод сжатия : С потерями
Бит/(Пиксели*Кадры) : 0.253
Временной код первого кадра : 00:00:00:00
Оригинал временного кода : Group of pictures header
Размер потока : 972 Мбайт (91%)
Default : Да
Forced : Нет
Аудио
Идентификатор : 2
Формат : MPEG Audio
Версия формата : Version 1
Профиль формата : Layer 2
Идентификатор кодека : A_MPEG/L2
Идентификатор кодека/Подсказка : MP2
Продолжительность : 51 м.
Вид битрейта : Постоянный
Битрейт : 192 Кбит/сек
Каналы : 2 канала
Частота : 48,0 КГц
Метод сжатия : С потерями
Размер потока : 71,2 Мбайт (7%)
Язык : Russian
Default : Да
Forced : Нет

Скриншоты


Резервные скриншоты


-
[teatrix.ru].t22982.torrent 
Торрент: Зарегистрирован [ 2016-03-21 00:35 ] · 91CA3BFDE6735A9809B627A6CE3841DB01B4A95B

Скачать .torrent

Скачать

11 KB

Статус: проверено
Скачан: 0 раз
Размер: 1.04 GB
terms.php



Быстрый ответ

Имя:

      
Для отправки сообщений необходимо включить JavaScript
Показать сообщения:    

Текущее время: 04-Дек 23:25

Часовой пояс: UTC + 3


Вы можете начинать темы
Вы можете отвечать на сообщения
Вы не можете редактировать свои сообщения
Вы не можете удалять свои сообщения
Вы не можете голосовать в опросах
Вы не можете прикреплять файлы к сообщениям
Вы можете скачивать файлы