Гений Карла Фаберже / The World's Most Beautiful Eggs: The Genius of Carl Faberge (Спайк Гелингер / Spike Geilinger) [2013, документальный, история искусства, DVB] DVO (SDI Media)


Статистика раздачи [Обновить пиров]
Размер:  763 MB   |    Зарегистрирован:  8 месяцев 14 дней   |    Скачан:  0 раз

Полного источника не было: Никогда

 
   
 
 
 

[Цитировать]

Гений Карла Фаберже
The Genius of Carl Faberge- Дата/Год выпуска: 2013
Страна: Великобритания
Жанр: документальный, история искусства
Продолжительность: 00:49:37
Перевод: Профессиональный (двухголосый закадровый)
Доп. инфо о переводе: Компания "SDI Media" по заказу ТПО "Ред Медиа"
Русские субтитры: нет
Режиссер: Спайк Гелингер / Spike Geilinger
Телеканал: 365 днейОписание: Пасхальным утром 1897 года российская императрица обнаружила у себя на столе яйцо, инкрустированное бриллиантами и рубинами. Его подарил ей ее муж – царь Николай II в честь коронации прошлым летом. Яйцо было изготовлено на Императорском заводе Фаберже, а внутри был фантастический сюрприз – копия королевской кареты XVIII века. Колеса были сделаны из платины и инкрустированы бриллиантами. На крыше есть багажник. Это была миниатюрная версия кареты, в которой императрица посетила церемонию в Москве. Это сокровище, которое теперь называют "Коронационное яйцо", провело бурную жизнь после смерти своих первоначальных владельцев. Но в апреле 2004 года появилось на аукционе "Сотбис" в Нью-Йорке. Высшая ставка за него составила 24 млн. долларов. Каким же образом неизвестный русский мастер стал одним из наиболее востребованных ювелиров в Европе, и почему его произведения стоят так дорого? (из предисловия к фильму)
Доп. информация: Eutelsat 36B (W7) DVB-S

качество: DVB
формат: MKV
Видео: MPEG Video 2, 720x576 (4:3), 25 fps, ~1916 kbps avg, 0.185 bit/pixel
Аудио: MPEG Audio 2, 2 ch, 48 kHz, 192 kbps

Информация по редактированию

Topfield SRP-2410 – запись спутниковой трансляции DVB-S (.rec)
ProjectX 0.91.0.10 - разбор контейнера, удаление рекламы и доп. информации
MKVToolNix GUI 8.8.0 – сборка в контейнер MKV
MkvTagger – редактирование тегов

MediaInfo

Общее
Уникальный идентификатор : 209107429669626113961456509490050845731 (0x9D50A0441F367B7DABFA3CBE44174C23)
Полное имя : [apreder]The_Genius_of_Carl_Faberge(2013)DVB.mkv
Формат : Matroska
Версия формата : Version 2
Размер файла : 763 Мбайт
Продолжительность : 49 м.
Режим общего битрейта : Переменный
Общий поток : 2150 Кбит/сек
Название фильма : The Genius of Carl Faberge
Дата выпуска : 2013-06-25
Дата кодирования : UTC 2016-02-14 13:12:47
Программа кодирования : mkvmerge v8.8.0 ('Wind at my back') 64bit
Библиотека кодирования : libebml v1.3.3 + libmatroska v1.4.4
Обложка : Yes
Attachments : cover.png / cover_small.png
DIRECTOR : Spike Geilinger
GENRE : Documentary
IMDB : tt4724624
KEYWORDS : rutracker.org
LAW_RATING : 12+
Видео
Идентификатор : 1
Формат : MPEG Video
Версия формата : Version 2
Профиль формата : Main@Main
Параметр BVOP формата : Да
Параметр матрицы формата : Выборочная
Параметр GOP формата : M=3, N=36
Format_Settings_PictureStructure : Frame
Идентификатор кодека : V_MPEG2
Идентификатор кодека/Информация : MPEG 1 or 2 Video
Продолжительность : 49 м.
Вид битрейта : Переменный
Битрейт : 1916 Кбит/сек
Ширина : 720 пикселей
Высота : 576 пикселей
Соотношение сторон : 4:3
Режим частоты кадров : Постоянный
Частота кадров : 25,000 кадров/сек
Стандарт вещания : PAL
Цветовое пространство : YUV
Субдискретизация насыщенности : 4:2:0
Битовая глубина : 8 бит
Тип развёртки : Чересстрочная
Порядок развёртки : Верхнее поле первое
Метод сжатия : С потерями
Бит/(Пиксели*Кадры) : 0.185
Временной код первого кадра : 00:00:00:00
Оригинал временного кода : Group of pictures header
Размер потока : 680 Мбайт (89%)
Default : Да
Forced : Нет
Аудио
Идентификатор : 2
Формат : MPEG Audio
Версия формата : Version 1
Профиль формата : Layer 2
Идентификатор кодека : A_MPEG/L2
Идентификатор кодека/Подсказка : MP2
Продолжительность : 49 м.
Вид битрейта : Постоянный
Битрейт : 192 Кбит/сек
Каналы : 2 канала
Частота : 48,0 КГц
Метод сжатия : С потерями
Размер потока : 68,2 Мбайт (9%)
Язык : Russian
Default : Да
Forced : Нет

Скриншоты


Резервные скриншоты


-
[teatrix.ru].t22984.torrent 
Торрент: Зарегистрирован [ 2016-03-21 00:35 ] · C5133DEE6BD0339966692D6D36E58E83D4BD3F05

Скачать .torrent

Скачать

15 KB

Статус: проверено
Скачан: 0 раз
Размер: 763 MB
terms.php



Быстрый ответ

Имя:

      
Для отправки сообщений необходимо включить JavaScript
Показать сообщения:    

Текущее время: 04-Дек 15:13

Часовой пояс: UTC + 3


Вы можете начинать темы
Вы можете отвечать на сообщения
Вы не можете редактировать свои сообщения
Вы не можете удалять свои сообщения
Вы не можете голосовать в опросах
Вы не можете прикреплять файлы к сообщениям
Вы можете скачивать файлы