[SACD-R][OF] Herbert von Karajan, Philharmonia Orchestra - Sibelius: Symphony No. 5, Finlandia, Op.26; Mussorgsky / Мусоргский: Pictures at an Exhibition (Картинки с выставки) - 2014 (Classical; Orchestral)


Статистика раздачи [Обновить пиров]
Размер:  3 GB   |    Зарегистрирован:  8 месяцев 14 дней   |    Скачан:  1 раз

Полного источника не было: 3 месяца 8 дней

 
   
 
 
 

[Цитировать]

Herbert von Karajan, Philharmonia Orchestra
Sibelius: Symphony No. 5 in E flat, Op.82; Finlandia, Op.26
Mussorgsky: Pictures at an Exhibition (arr. Maurice Ravel)
- Формат записи/Источник записи: [SACD-R][OF]
Наличие водяных знаков: Нет
Год издания/переиздания диска: 1956, 1959, 1960/2014
Жанр: Classical; Orchestral
Издатель(лейбл): Warner Music (Japan)
Продолжительность: 01:14:28
Наличие сканов в содержимом раздачи: Нет-Треклист:
Sibelius:
Symphony no.5 in E flat, Op.82

01] I Tempo molto moderato - Largamente - Allegro moderato - Presto
02] II Andante mosso, quasi allegretto
03] III Allegro molto - Un pochettino largamente
04] Finlandia, Op.26
Mussorgsky: Pictures from an Exhibition (arr. Maurice Ravel)
05] Promenade - Gnomus - Promenade
06] The Old Castle
07] Tuileries
08] Bydlo - Promenade
09] Ballet of the Unhatched Chicks
10] Samuel Goldenberg and Schmuyle
11] The Market Place at Limoges
12] Catacombe - Cum mortuis in lingua mortua
13] The Hut on Fowl's Legs
14] The Great Gate of Kiev-Philharmonia Orchestra
Herbert von Karajan, conductor-Контейнер: ISO (*.iso)
Тип рипа: image
Разрядность: 64(2,8 MHz/1 Bit)
Формат: DSD
Количество каналов: 2.0
Доп. информация: WPCS-12685
Recorded: 20th, 21st & 23rd IX. 1960 (Symphony No.5); 5th, 6th I. 1959 (Finlandia), 11th, 12th X. 1955 & 18th VI. 1956 (Pictures at..), Kingsway Hall, London
Produced: Walter Legg
Balance Engineers: Douglas Larter (Symphony No.5, Pictures at..), Harold Davidson (Finlandia)
http://sa-cd.net/showtitle/9843

DR 12

foobar2000 1.3.8 / Замер динамического диапазона (DR) 1.1.1
Дата отчёта: 2016-02-04 19:51:19
--------------------------------------------------------------------------------
Анализ: Philharmonia Orchestra - Herbert von Karajan / Sibelius: Symphony No. 5, Finlandia; Mussorgsky: Pictures at an Exhibition
--------------------------------------------------------------------------------
DR Пики RMS Продолжительность трека
--------------------------------------------------------------------------------
DR12 -4.40 дБ -23.39 дБ 13:27 01-Symphony no.5 in E flat, Op.82 - I Tempo molto moderato - Largamente - Allegro moderato - Presto
DR13 -5.78 дБ -27.34 дБ 8:11 02-Symphony no.5 in E flat, Op.82 - II Andante mosso, quasi allegretto
DR11 -4.98 дБ -21.94 дБ 9:09 03-Symphony no.5 in E flat, Op.82 - III Allegro molto - Un pochettino largamente
DR10 -3.82 дБ -19.55 дБ 9:00 04-Finlandia, Op.26
DR13 -4.62 дБ -23.91 дБ 5:14 05-Pictures from an Exhibition - Promenade - Gnomus - Promenade
DR13 -9.82 дБ -29.52 дБ 5:25 06-Pictures from an Exhibition - The Old Castle
DR12 -8.64 дБ -29.18 дБ 1:05 07-Pictures from an Exhibition - Tuileries
DR12 -8.46 дБ -28.44 дБ 3:51 08-Pictures from an Exhibition - Bydlo - Promenade
DR11 -20.83 дБ -40.46 дБ 1:12 09-Pictures from an Exhibition - Ballet of the Unhatched Chicks
DR11 -8.70 дБ -25.05 дБ 2:20 10-Pictures from an Exhibition - Samuel Goldenberg and Schmuyle
DR12 -6.46 дБ -23.65 дБ 1:23 11-Pictures from an Exhibition - The Market Place at Limoges
DR13 -6.10 дБ -25.55 дБ 4:27 12-Pictures from an Exhibition - Catacombe - Cum mortuis in lingua mortua
DR12 -5.98 дБ -23.21 дБ 3:28 13-Pictures from an Exhibition - The Hut on Fowl's Legs
DR10 -3.66 дБ -17.42 дБ 6:16 14-Pictures from an Exhibition - The Great Gate of Kiev
--------------------------------------------------------------------------------
Количество треков: 14
Реальные значения DR: DR12
Частота: 2822400 Гц / Частота PCM: 88200 Гц
Каналов: 2
Разрядность: 24
Битрейт: 5645 кбит/с
Кодек: DSD64
================================================================================
[teatrix.ru].t22986.torrent 
Торрент: Зарегистрирован [ 2016-03-21 00:35 ] · B822BF68C18FD9D4BF3C87443AC09E8ACD02DAD0

Скачать .torrent

Скачать

31 KB

Статус: проверено
Скачан: 1 раз
Размер: 3 GB
terms.php



Быстрый ответ

Имя:

      
Для отправки сообщений необходимо включить JavaScript
Показать сообщения:    

Текущее время: 04-Дек 13:15

Часовой пояс: UTC + 3


Вы можете начинать темы
Вы можете отвечать на сообщения
Вы не можете редактировать свои сообщения
Вы не можете удалять свои сообщения
Вы не можете голосовать в опросах
Вы не можете прикреплять файлы к сообщениям
Вы можете скачивать файлы