Юбилейный вечер Олега Табакова в МХТ им. Чехова [2016 г., юбилейный вечер, HDTVRip] Московский художественный театр им. А.П. Чехова


Статистика раздачи [Обновить пиров]
Размер:  1.2 GB   |    Зарегистрирован:  8 месяцев 18 дней   |    Скачан:  0 раз

Полного источника не было: Никогда

 
   
 
 
 

[Цитировать]

Юбилейный вечер Олега Табакова в МХТ им. Чехова К 80-летию Олега Павловича Табакова (17 августа 1935, Саратов).
Название театра: Московский художественный театр им. А.П. Чехова.
Год выпуска: 2016.
Жанр: юбилейный вечер.
Продолжительность: 01:29:03.
Ведущие вечера: Иван Ургант и Игорь Золотовицкий.
Описание:
"Первый канал" представил телеверсию юбилейного вечера Олега Табакова в МХТ имени Чехова.
Гости вечера - друзья юбиляра, звезды российской музыки и сцены, актёры двух театров, которыми руководит Табаков, а также воспитанники Московской Театральной школы Олега Табакова. Сам герой торжества наблюдал праздничное действо из 8-го ряда партера, где занял место Станиславского.
На сцене в этот вечер блистали знаменитые ученики Олега Павловича. Сергей Безруков исполнил арию из спектакля "Амадей" (шел на сцене МХТ 25 лет), где Моцарт-Безруков обвинил Учителя в отравлении - "Я отравлен навсегда - это счастье, господа", а дальше "Отрави же, отрави!" на мотив "Позвони мне, позвони". Владимир Машков вышел в облике Абрама Шварца с авоськой, в которой были "чеснок - от всего и чернослив - для всего", - "Спасибо, что научил нас, с чем кушают счастье". Овации зала сорвали члены Клуба "80+" (старшие товарищи) Александр Ширвиндт, Станислав Любшин и Юрий Соломин. Но заводилой в этой компании, бесспорно, стал 100-летний Владимир Зельдин. Ширвиндт назвал ровесников "командой паралимпийцев" и уточнил - "Но мы без допинга!". На вечере выступили Михаил Жванецкий и Евгений Гришковец, пела Полина Гагарина, играл оркестр под управлением Владимира Спивакова, студенты Театральной школы демонстрировали пластику и чувство ритма; участвовали
в капустнике и члены семьи Олега Павловича, а актёры двух театров, МХТ и "Табакерки", чуть не подрались... Стихи, песни, репризы, частушки и видеопоздравления... Все это - юбилейный вечер Олега Табакова.

Дополнительная информация:
Страна: Россия .
Авторы прозвучавших произведений: Бобби Хебб, М. Рахлин, Адольф Шлезингер, Берт Кемпферт, Владислав Лешкевич, Валерий Текель, Валерий Стронский, Дмитрий Притула, Джон Уильямс, Эндрю Ллойд Уэббер, Геннадий Гладков, Евгений Крылатов, И. Ларионов, Хуан Тизоль, Георгий Свиридов, Игорь Матвиенко, Константин Богомолов, Максим Дунаевский, Вольфганг Амадей Моцарт, Эннио Морриконе, Игорь Назарук, Клинт Мэнселл, Фредди Меркьюри, Майк Моран, F. Gordon, C. Miller, K. Keith, Лиэм Хоулетт, M. Smith, Тревор Рэндольф, Леонард Коэн.

Премьера на Первом канале в 19:05 16 января 2016 г.


Релиз
Рип lesik689.

Качество видео:...HDTVRip
Формат:.................AVI
Видео:..704x400 (1.76:1), 25 fps, XviD MPEG-4 ~1800 kbps avg, 0.26 bit/pixel
Аудио:..48 kHz, MPEG Layer 3, 2 ch, ~128.00 kbps avg

Отчет Media Info

General
Complete name : Yubilejnyj.vecher.Olega.Tabakova.v.MHT.2016.XviD.HDTVRip.fenixclub.avi
Format : AVI
Format/Info : Audio Video Interleave
Format profile : OpenDML
File size : 1.20 GiB
Duration : 1h 29mn
Overall bit rate : 1 935 Kbps
Writing library : MPlayer
Video
ID : 0
Format : MPEG-4 Visual
Format profile : Advanced Simple@L5
Format settings, BVOP : 2
Format settings, QPel : No
Format settings, GMC : No warppoints
Format settings, Matrix : Default (MPEG)
Codec ID : XVID
Codec ID/Hint : XviD
Duration : 1h 29mn
Bit rate : 1 801 Kbps
Width : 704 pixels
Height : 400 pixels
Display aspect ratio : 16:9
Frame rate : 25.000 fps
Color space : YUV
Chroma subsampling : 4:2:0
Bit depth : 8 bits
Scan type : Progressive
Compression mode : Lossy
Bits/(Pixel*Frame) : 0.256
Stream size : 1.12 GiB (93%)
Writing library : XviD 73
Audio
ID : 1
Format : MPEG Audio
Format version : Version 1
Format profile : Layer 3
Mode : Joint stereo
Mode extension : MS Stereo
Codec ID : 55
Codec ID/Hint : MP3
Duration : 1h 29mn
Bit rate mode : Constant
Bit rate : 128 Kbps
Channel(s) : 2 channels
Sampling rate : 48.0 KHz
Compression mode : Lossy
Stream size : 81.5 MiB (7%)
Alignment : Split accross interleaves
Interleave, duration : 500 ms (12.50 video frames)
Interleave, preload duratio : 500 ms.

Скриншот с названием

Скриншоты


Альтернативный хост


[teatrix.ru].t22988.torrent 
Торрент: Зарегистрирован [ 2016-03-21 00:35 ] · 7754314E011457E545E414F37CF5800B6ED9BD3C

Скачать .torrent

Скачать

13 KB

Статус: проверено
Скачан: 0 раз
Размер: 1.2 GB
terms.php



Быстрый ответ

Имя:

      
Для отправки сообщений необходимо включить JavaScript
Показать сообщения:    

Текущее время: 08-Дек 07:09

Часовой пояс: UTC + 3


Вы можете начинать темы
Вы можете отвечать на сообщения
Вы не можете редактировать свои сообщения
Вы не можете удалять свои сообщения
Вы не можете голосовать в опросах
Вы не можете прикреплять файлы к сообщениям
Вы можете скачивать файлы