(Classical/Chamber/Concerto/Vocal) Tchaikovsky/Чайковский - Камерная симфония, кантата «Знаки Зодиака», Четыре прелюдии для камерного оркестра, Концерт для кларнета и камерного оркестра / Эдуард Серов, М.Мирошникова - 2003, FLAC (image+.cue) lossless


Статистика раздачи [Обновить пиров]
Размер:  380 MB   |    Зарегистрирован:  8 месяцев 20 дней   |    Скачан:  1 раз

Полного источника не было: 3 месяца 23 дня

 
   
 
 
 

[Цитировать]

Boris Tchaikovsky
Chamber Symphony, Signs of the Zodiac, Four Preludes, Clarinet Concerto (Санкт-Петербургский камерный оркестр - Эдуард Серов)'Жанр: Classical, Chamber, Concerto
Страна-производитель диска: Россия
Год издания диска: 2003
Издатель (лейбл): Northern flowers
Номер по каталогу: NF/PMA 9918
Дата записи: 1978, 1985 гг.
Аудиокодек: FLAC
Тип рипа: image+.cue
Битрейт аудио: lossless
Продолжительность: 1:09:06
сайт-источник: блог
Наличие сканов в содержимом раздачи: да
Треклист :
Камерная симфония (1967)
01. Соната (4:36)
02. Унисон (2:18)
03. Хоральная музыка (2:18)
04. Интерлюдия (2:08)
05. Маршевые мотивы (3:40)
06. Серенада (5:15)
Знаки Зодиака, кантата для сопрано, клавесина и струнных (1974)
07. Прелюдия. Silentium! Слова Ф. Тютчева (10:20)
08. Там далеко. Слова А. Блока (3:13)
09. У четырёх дорог. Слова М. Цветаевой (4:52)
10. Знаки Зодиака. Слова Н. Заболоцкого (5:33)
Четыре прелюдии для камерного оркестра (1984)
11. Agitato. Con moto. Adagio. Semplice (12:24)
Концерт для кларнета и камерного оркестра (1957)
12. Moderato (4:57)
13. Vivace (1:39)
14. Allegro (5:55)
Исполнители :
Санкт-Петербургский камерный оркестр
Эдуард Серов, дирижёр
Маргарита Мирошникова, сопрано
Григорий Корчмар, клавесин
Адиль Федоров, кларнет
Записано в зале Академической Капеллы Санкт-
Петербурга в 1985 (1-6, 11-14) и в 1978 (7-10)
Звукорежиссёры: Герхард Цесс (7-10) и Феликс Гурджи
Дизайн: Олег Фахрутдинов и Анастасия Евменова

Доп. информация


Мы говорим, что творчество Бориса Чайковского принадлежит к числу самых выдающихся явлений русской музыки ХХ века, что он создал свой неповторимый музыкальный язык, органично сочетающий элементы классического наследия и современной техники, что он был блестящим мастером и знатоком оркестра, что лучшие его сочинения совершенны по форме и глубоки по содержанию, что его изысканное, поэтичное творчество, наделённое возвышенным этическим содержанием, всегда было свободно и от официальной идеологии, и текущей моды, что человек, со всеми его переживаниями, всегда находился в самом центре внимания композитора.
Всё это справедливо. Но есть ряд неповторимых человеческих и композиторских качеств Бориса Александровича, которые ставят его в особый ряд художников. Судьба одарила его замечательным, щедрым и поистине неистощимым музыкальным талантом, удивительно цельной, богатой, органичной и благородной натурой. Пропуская через своё большое сердце волнующие художественные проблемы современности, человеческие горести и радости, душевные переживания индивидуума перед лицом сложных жизненных коллизий, композитор умел сказать искренне и глубоко самое главное об окружающем мире. И, может быть, именно это свойство его творчества так сильно притягивает нас, завораживает, заставляет возвращаться к его сочинениям вновь и вновь.
Northern flowers

Лог создания рипа

Exact Audio Copy V1.0 beta 3 from 29. August 2011
EAC extraction logfile from 31. August 2014, 15:39
Boris Tchaikovsky / Chamber Symphony Signs of the Zodiac Four Preludes Clarinet Concerto
Used drive : TSSTcorpCDDVDW SH-S223C Adapter: 2 ID: 1
Read mode : Secure
Utilize accurate stream : Yes
Defeat audio cache : Yes
Make use of C2 pointers : No
Read offset correction : 697
Overread into Lead-In and Lead-Out : No
Fill up missing offset samples with silence : Yes
Delete leading and trailing silent blocks : No
Null samples used in CRC calculations : Yes
Used interface : Native Win32 interface for Win NT & 2000
Used output format : User Defined Encoder
Selected bitrate : 1024 kBit/s
Quality : High
Add ID3 tag : No
Command line compressor : C:\Program Files (x86)\Exact Audio Copy\FLAC\FLAC.EXE
Additional command line options : -V -0 -T "COMMENT=Ripped by Tapaz9" -T "artist=%artist%" -T "title=%title%" -T "album=%albumtitle%" -T "date=%year%" -T "tracknumber=%tracknr%" -T "genre=%genre%" %source%
TOC of the extracted CD
Track | Start | Length | Start sector | End sector
---------------------------------------------------------
1 | 0:00.00 | 4:36.25 | 0 | 20724
2 | 4:36.25 | 2:17.52 | 20725 | 31051
3 | 6:54.02 | 2:17.62 | 31052 | 41388
4 | 9:11.64 | 2:08.28 | 41389 | 51016
5 | 11:20.17 | 3:39.64 | 51017 | 67505
6 | 15:00.06 | 5:14.72 | 67506 | 91127
7 | 20:15.03 | 10:20.09 | 91128 | 137636
8 | 30:35.12 | 3:12.38 | 137637 | 152074
9 | 33:47.50 | 4:51.39 | 152075 | 173938
10 | 38:39.14 | 5:32.50 | 173939 | 198888
11 | 44:11.64 | 12:23.57 | 198889 | 254670
12 | 56:35.46 | 4:56.40 | 254671 | 276910
13 | 61:32.11 | 1:38.60 | 276911 | 284320
14 | 63:10.71 | 5:55.35 | 284321 | 310980
Range status and errors
Selected range
Filename F:\Musique\Tchaikovsky, Boris\Tchaikovsky_Boris_ChamberSymphony\Boris Tchaikovsky - Chamber Symphony Signs of the Zodiac Four Preludes Clarinet Concerto.wav
Peak level 100.0 %
Extraction speed 13.0 X
Range quality 100.0 %
Copy CRC F1E09C5E
Copy OK
No errors occurred
End of status report
==== Log checksum F0A674A2727AEFBB239EC9AEB55697EDE526CD4D9804287D69898158D7C8A16A ====

Содержание индексной карты [eng] (.CUE)

REM GENRE Classical
REM DISCID CA10320E
REM COMMENT ExactAudioCopy v1.0b3
PERFORMER "Boris Tchaikovsky"
TITLE "Chamber Symphony Signs of the Zodiac Four Preludes Clarinet Concerto"
FILE "Boris Tchaikovsky - Chamber Symphony Signs of the Zodiac Four Preludes Clarinet Concerto.flac" WAVE
TRACK 01 AUDIO
TITLE "Chamber Symphony (1967) - I. Sonata"
INDEX 01 00:00:00
TRACK 02 AUDIO
TITLE "II. Unison"
INDEX 00 04:36:24
INDEX 01 04:36:25
TRACK 03 AUDIO
TITLE "III. Choral Music"
INDEX 00 06:54:01
INDEX 01 06:54:02
TRACK 04 AUDIO
TITLE "IV. Interlude"
INDEX 01 09:11:64
TRACK 05 AUDIO
TITLE "V. March Tunes"
INDEX 01 11:20:17
TRACK 06 AUDIO
TITLE "VI. Serenade"
INDEX 01 15:00:06
TRACK 07 AUDIO
TITLE "Signs Of The Zodiac (1974), Cantata for soprano, cembalo and string orchestra..."
INDEX 01 20:15:03
TRACK 08 AUDIO
TITLE "II. Far Out"
REM REPLAYGAIN_TRACK_GAIN +4.79 dB
REM REPLAYGAIN_TRACK_PEAK 0.536743
INDEX 00 30:35:03
INDEX 01 30:35:12
TRACK 09 AUDIO
TITLE "III. Cross O' Four Road"
INDEX 00 33:47:43
INDEX 01 33:47:50
TRACK 10 AUDIO
TITLE "IV. Signs Of The Zodiac"
INDEX 00 38:39:12
INDEX 01 38:39:14
TRACK 11 AUDIO
TITLE "Four Preludes for chamber orchestra (1984) - Agitato. Con moto. Declamando. A..."
INDEX 00 44:11:55
INDEX 01 44:11:64
TRACK 12 AUDIO
TITLE "Concerto for clarinet and chamber orchestra (1957) - I. Moderato"
REM DATE
INDEX 01 56:35:46
TRACK 13 AUDIO
TITLE "II. Vivace"
INDEX 01 61:32:11
TRACK 14 AUDIO
TITLE "III. Allegro"
INDEX 01 63:10:71

Содержание индексной карты [rus] (.CUE)

REM GENRE Classical
REM DISCID CA10320E
REM COMMENT ExactAudioCopy v1.0b3
PERFORMER "Борис Чайковский"
TITLE "Chamber Symphony Signs of the Zodiac Four Preludes Clarinet Concerto"
FILE "Boris Tchaikovsky - Chamber Symphony Signs of the Zodiac Four Preludes Clarinet Concerto.flac" WAVE
TRACK 01 AUDIO
TITLE "Соната (Камерная симфония - 1967)"
INDEX 01 00:00:00
TRACK 02 AUDIO
TITLE "Унисон (Камерная симфония - 1967)"
REM DATE
INDEX 00 04:36:24
INDEX 01 04:36:25
TRACK 03 AUDIO
TITLE "Хоральная музыка (Камерная симфония - 1967)"
REM DATE
INDEX 00 06:54:01
INDEX 01 06:54:02
TRACK 04 AUDIO
TITLE "Интерлюдия (Камерная симфония - 1967)"
REM DATE
INDEX 01 09:11:64
TRACK 05 AUDIO
TITLE "Маршевые мотивы (Камерная симфония - 1967)"
REM DATE
INDEX 01 11:20:17
TRACK 06 AUDIO
TITLE "Серенада (Камерная симфония - 1967)"
REM DATE
INDEX 01 15:00:06
TRACK 07 AUDIO
TITLE "Прелюдия. Silentium! (Знаки Зодиака, кантата для сопрано, клавесина и струнных - 1974)"
INDEX 01 20:15:03
TRACK 08 AUDIO
TITLE "Там далеко (Знаки Зодиака, кантата для сопрано, клавесина и струнных - 1974)"
REM REPLAYGAIN_TRACK_GAIN +4.79 dB
REM REPLAYGAIN_TRACK_PEAK 0.536743
INDEX 00 30:35:03
INDEX 01 30:35:12
TRACK 09 AUDIO
TITLE "У четырёх дорог (Знаки Зодиака, кантата для сопрано, клавесина и струнных - 1974)"
INDEX 00 33:47:43
INDEX 01 33:47:50
TRACK 10 AUDIO
TITLE "Знаки Зодиака (Знаки Зодиака, кантата для сопрано, клавесина и струнных - 1974)"
INDEX 00 38:39:12
INDEX 01 38:39:14
TRACK 11 AUDIO
TITLE "Agitato. Con moto. Adagio. Semplice (Четыре прелюдии для камерного оркестра - 1984)"
INDEX 00 44:11:55
INDEX 01 44:11:64
TRACK 12 AUDIO
TITLE "Moderato (Концерт для кларнета и камерного оркестра - 1957)"
INDEX 01 56:35:46
TRACK 13 AUDIO
TITLE "Vivace (Концерт для кларнета и камерного оркестра - 1957)"
INDEX 01 61:32:11
TRACK 14 AUDIO
TITLE "Allegro (Концерт для кларнета и камерного оркестра - 1957)"
INDEX 01 63:10:71
[teatrix.ru].t22989.torrent 
Торрент: Зарегистрирован [ 2016-03-21 00:35 ] · DAD434C825FFE3E2BC95CC61E8605AFE03BBE8E8

Скачать .torrent

Скачать

16 KB

Статус: проверено
Скачан: 1 раз
Размер: 380 MB
terms.php



Быстрый ответ

Имя:

      
Для отправки сообщений необходимо включить JavaScript
Показать сообщения:    

Текущее время: 10-Дек 13:50

Часовой пояс: UTC + 3


Вы можете начинать темы
Вы можете отвечать на сообщения
Вы не можете редактировать свои сообщения
Вы не можете удалять свои сообщения
Вы не можете голосовать в опросах
Вы не можете прикреплять файлы к сообщениям
Вы можете скачивать файлы