Кабинет доктора Калигари / Das Cabinet des Dr. Caligari (Роберт Вине / Robert Wiene) [1920, Германия, детектив, ужасы, BDRip] Sub (Rus) + Original


 

[Цитировать]

Кабинет доктора Калигари / Das Cabinet des Dr. Caligari
Страна: Германия
Жанр: детектив, ужасы
Годы выпуска: 1920
Продолжительность: 01:17:17
Перевод: субтитры borzov
Cубтитры: русские
Оригинальная аудиодорожка: музыкальное сопровождение
Режиссер: Роберт Вине / Robert Wiene
В ролях: Вернер Краусс, Конрад Фейдт, Фридрих Фехер, Лил Даговер, Ханс Хайнрих фон Твардовски, Рудольф Леттингер
Описание: Молодой человек по имени Фрэнсис рассказывает ужасную историю: его друг, он сам и их любимая девушка стали жертвами чудовищного эксперимента, задуманного и осуществленного неким доктором Калигари…
Доп. информация:
Качество видео: BDRip | Core_soul/BDRemux 1080p
Формат видео: AVI
Видео: 720x544 (1.32:1), 23.976 fps, XviD build 73 ~2244 kbps avg, 0.24 bit/pixel
Аудио: 48 kHz, AC3 Dolby Digital, 3/2 (L,C,R,l,r) + LFE ch, ~448 kbps
Формат субтитров: softsub (SRT)

MediaInfo

General
Complete name : C:\Das.Cabinet.des.Dr.Caligari.1920.BDRip_by_LBS.avi
Format : AVI
Format/Info : Audio Video Interleave
File size : 1.46 GiB
Duration : 1h 17mn
Overall bit rate : 2 702 Kbps
Director : Last Boy Scout
Writing application : VirtualDubMod 1.5.10.3 | www.virtualdub-fr.org || (build 2550/release)
Copyright : rutracker.org 15.02.2016
Comment : BDRip
Video
ID : 0
Format : MPEG-4 Visual
Format profile : Advanced Simple@L5
Format settings, BVOP : 1
Format settings, QPel : No
Format settings, GMC : No warppoints
Format settings, Matrix : Custom
Codec ID : XVID
Codec ID/Hint : XviD
Duration : 1h 17mn
Bit rate : 2 245 Kbps
Width : 720 pixels
Height : 544 pixels
Display aspect ratio : 4:3
Frame rate : 23.976 fps
Color space : YUV
Chroma subsampling : 4:2:0
Bit depth : 8 bits
Scan type : Progressive
Compression mode : Lossy
Bits/(Pixel*Frame) : 0.239
Stream size : 1.21 GiB (83%)
Writing library : XviD 73
Audio
ID : 1
Format : AC-3
Format/Info : Audio Coding 3
Mode extension : CM (complete main)
Format settings, Endianness : Big
Codec ID : 2000
Duration : 1h 17mn
Bit rate mode : Constant
Bit rate : 448 Kbps
Channel(s) : 6 channels
Channel positions : Front: L C R, Side: L R, LFE
Sampling rate : 48.0 KHz
Bit depth : 16 bits
Compression mode : Lossy
Stream size : 248 MiB (17%)
Alignment : Split accross interleaves
Interleave, duration : 42 ms (1.00 video frame)
Interleave, preload duration : 500 ms

Скриншоты

Пример субтитров

21
00:07:42,295 --> 00:07:49,594
"Ну давай, Франсис,
пошли на ярмарку!"
22
00:08:21,835 --> 00:08:33,596
"Не ходите туда... Городской секретарь
в ужасном настроении сегодня!"
23
00:08:44,974 --> 00:08:48,410
<i>Доктор Калигари</i>
24
00:08:59,205 --> 00:09:01,332
"Ждите!"
25
00:09:30,403 --> 00:09:31,988
"Ждите!"
26
00:10:02,310 --> 00:10:16,533
"Я бы хотел обратиться за разрешением
выставить свой экспонат на ярмарке."
27
00:10:20,453 --> 00:10:30,338
"Что за экспонат?"
28
00:10:32,549 --> 00:10:36,386
"Сомнамбула."
29
00:13:09,789 --> 00:13:17,338
"Подххххходите!
Здесь впервые показывают...
30
00:13:17,505 --> 00:13:22,218
Чезаре, сомнамбулу!"
31
00:13:30,184 --> 00:13:33,771
Конец первого акта
32
00:13:34,439 --> 00:13:38,067
Акт II
33
00:13:38,192 --> 00:13:48,327
В ту ночь произошло первое из
серии таинственных преступлений.
34
00:14:02,925 --> 00:14:14,729
"Убийство!
Городской секретарь убит.
35
00:14:14,854 --> 00:14:30,453
Зарезан в бок странным
заострённым предметом."
36
00:15:26,634 --> 00:15:40,606
"Подххххходите! Здесь впервые показывают...
Чезаре, сомнамбулу!
37
00:15:40,731 --> 00:15:47,613
Удивительный Чезаре...
38
00:15:47,738 --> 00:16:07,341
двадцати трёх лет...
он проспал двадцать три года...
39
00:16:07,466 --> 00:16:21,814
Без перерыва.... Днём и ночью!
40
00:16:21,939 --> 00:16:31,866
И сейчас на ваших глазах



Показать сообщения:    

Текущее время: 03-Дек 12:39

Часовой пояс: UTC + 3


Вы не можете начинать темы
Вы не можете отвечать на сообщения
Вы не можете редактировать свои сообщения
Вы не можете удалять свои сообщения
Вы не можете голосовать в опросах
Вы не можете прикреплять файлы к сообщениям
Вы не можете скачивать файлы